<?xml version="1.0" standalone="no"?>
<!DOCTYPE svg PUBLIC "-//W3C//DTD SVG 1.1//EN" "http://www.w3.org/Graphics/SVG/1.1/DTD/svg11.dtd">
<svg xmlns="http://www.w3.org/2000/svg">
<metadata>Copyright (C) 2024 by original authors @ fontello.com</metadata>
<defs>
<font id="fontello" horiz-adv-x="1000" >
<font-face font-family="fontello" font-weight="400" font-stretch="normal" units-per-em="1000" ascent="850" descent="-150" />
<missing-glyph horiz-adv-x="1000" />
<glyph glyph-name="q-icon-flag" unicode="&#xe800;" d="M0 581c0 95 0 140 20 175 16 29 41 54 77 74 36 20 81 20 178 20h250c97 0 143 0 178-20 31-15 56-40 77-74 20-35 20-80 20-175v-731l-397 219-403-219v731z" horiz-adv-x="800" />

<glyph glyph-name="q-icon-plus-circle" unicode="&#xe801;" d="M500 850c-276 0-500-224-500-500s224-500 500-500 500 224 500 500-224 500-500 500z m0-909c-226 0-409 183-409 409 0 226 183 409 409 409 226 0 409-183 409-409 0-226-183-409-409-409z m182 455h-136v136c0 25-21 45-46 45s-45-20-45-45v-136h-137c-25 0-45-21-45-46s20-45 45-45h137v-137c0-25 20-45 45-45s46 20 46 45v137h136c25 0 45 20 45 45s-20 46-45 46z" horiz-adv-x="1000" />

<glyph glyph-name="q-dfl-icon" unicode="&#xe802;" d="M129 850h241c49 0 99-9 143-29 41-18 74-47 97-85 23-38 35-85 35-129 0-47-12-91-35-129-23-39-56-68-97-85-44-21-94-30-143-30h-241v487z m235-361c32-3 61 9 85 30 23 23 32 52 32 85 3 32-9 61-32 85-24 20-53 32-85 29h-71v-232l71 3z m507 238v-85h205v-123h-205v-156h-164v487h399v-123l-235 0z m284 123h165v-361h220v-129h-385v490z m-1017-1000c-24 0-50 6-71 18-20 11-38 26-49 46-12 21-18 44-18 68 0 23 6 47 18 67 11 21 29 36 49 47 24 15 47 21 74 21 20 0 41-3 61-12 18-9 33-20 44-32l-41-38c-14 20-38 29-64 29-15 0-30-3-44-12-12-5-24-17-30-29-2-12-8-23-8-41 0-15 3-29 11-41 6-12 18-24 30-29 11-6 26-12 44-12 26 0 50 12 64 29l38-35c-11-15-26-26-44-35-23-6-44-9-64-9z m328 103c0 0 0-6 0-15h-149c3-12 9-24 20-29 12-9 24-12 38-12 9 0 18 0 27 6 9 3 14 9 23 14l30-32c-21-23-50-35-83-32-20 0-41 3-58 12-18 8-29 20-38 35-9 14-15 35-15 53 0 17 6 35 15 52 9 15 23 30 38 36 17 8 35 14 53 11 17 0 35-3 52-11 15-9 30-21 39-36 5-14 8-32 8-52z m-102 58c-12 0-24-3-33-11-8-9-14-18-14-30h97c-3 12-6 24-15 30-12 8-24 11-35 11l0 0z m196 15c6 9 18 18 27 21 11 5 26 8 41 5v-52c-6 0-12 0-12 0-15 0-29-3-38-15-9-12-15-27-15-41v-94h-59v197h56v-21z m235-161c-6-6-15-9-21-9-9-3-17-3-23-3-21 0-38 6-56 17-15 15-20 33-20 53v82h-30v44h30v47h58v-47h50v-44h-50v-79c0-6 3-14 6-20 6-6 12-6 18-6 8 0 17 3 23 6l15-41z m32 187h59v-196h-59v196z m29 27c-8 0-17 3-26 9-6 5-9 14-9 23 0 9 3 18 9 24 6 5 18 8 26 8 9 0 18-3 27-8 6-6 9-15 9-24 0-9-3-18-9-23-6-6-18-9-27-9l0 0z m144-32h50v-44h-50v-150h-59v150h-29v44h29v8c0 21 6 38 21 53 15 15 35 21 56 21 8 0 17 0 23-3 6-3 15-3 21-9l-15-41c-6 6-15 6-23 6-18 0-27-9-27-30l3-5z m109 5h58v-196h-56l-2 196z m29 27c-9 0-18 3-27 9-5 5-8 14-8 23 0 9 3 18 8 24 6 5 18 8 27 8 9 0 17-3 26-8 6-6 9-15 9-24 0-9-3-18-9-23-6-6-17-9-26-9l0 0z m276-126c0 0 0-6 0-15h-150c3-12 9-24 18-29 11-9 23-12 38-12 8 0 17 0 26 6 9 3 15 9 24 14l29-32c-21-23-50-35-82-32-21 0-41 3-59 12-17 8-29 20-38 35-9 14-15 35-15 53 0 17 6 35 15 52 9 15 23 30 38 36 18 8 35 14 53 11 17 0 35-3 53-11 14-9 29-21 38-36 6-14 12-32 12-52z m-103 58c-12 0-24-3-32-11-9-9-15-18-15-30h97c-3 12-6 24-15 30-12 8-23 11-35 11l0 0z m340 115v-273h-56v23c-14-17-38-26-61-26-18 0-35 3-50 12-15 8-26 20-35 35-9 17-15 35-12 53 0 17 3 38 12 53 9 14 20 26 35 35 15 9 32 11 50 11 23 0 44-8 58-23v97h59z m-105-226c14 0 26 6 35 14 8 12 14 27 14 42 0 14-6 29-14 41-9 8-24 14-35 14-15 0-27-6-36-14-8-12-14-27-14-41 0-15 6-30 14-42 9-11 21-14 36-14z" horiz-adv-x="1651" />

<glyph glyph-name="q-map-pin" unicode="&#xe803;" d="M795 728c-79 79-184 122-295 122-111 0-216-43-295-122-78-79-122-183-122-295 0-310 378-565 394-576 7-5 15-7 23-7s16 2 23 7c16 11 394 266 394 576 0 112-44 216-122 295z m-295-785c-79 59-333 265-333 490 0 89 34 173 97 236 63 63 147 98 236 98 89 0 173-35 236-98 63-63 97-147 97-236 0-225-254-431-333-490z m0 657c-92 0-167-75-167-167s75-166 167-166c92 0 167 74 167 166s-75 167-167 167z m0-250c-46 0-83 37-83 83s37 84 83 84c46 0 83-38 83-84s-37-83-83-83z" horiz-adv-x="1000" />

<glyph glyph-name="q-engage" unicode="&#xe804;" d="M993 350c0 78-66 143-143 143h-171v86c0 78-65 143-143 143h-386c-77 0-142-65-142-143v-301c0-22 17-48 39-59 13-8 19-8 31-8 12 0 30 8 40 17l62 52h140v-83c0-77 66-143 143-143h356l61-49c12-13 23-20 42-20 32 0 63 29 71 70l0 295z m-673 0v-10h-150c-9 0-12 0-17-6l-70-62h-9c-9 0-9 1-9 9v298c0 49 37 86 86 86h386c49 0 86-37 86-86v-86h-84c-1 22-19 39-40 39-22 0-40-18-41-40-75-3-138-67-138-142z m148 90h378c49 0 86-37 86-86v-306c0-7-6-9-9-9h-1l-73 61c-6 7-9 8-18 8h-367c-49 0-86 37-86 86l0 152c4 92 86 94 90 94z m29-216c22 0 40 19 40 41 0 22-18 40-40 40s-41-18-41-40c0-23 18-41 41-41z m305 0c22 0 40 19 40 41 0 22-18 40-40 40s-41-18-41-40c0-23 18-41 41-41z m-153 0c23 0 41 19 41 41 0 22-19 40-41 40s-40-18-40-40c-1-23 18-41 40-41z m-456 309c-23 0-41-19-41-41 0-22 18-40 41-40s40 18 40 40c0 22-18 41-40 41z m152 0c-22 0-40-19-40-41 0-22 18-40 40-40s41 18 41 40c0 22-18 41-41 41z" horiz-adv-x="1000" />

<glyph glyph-name="q-stats-select" unicode="&#xe805;" d="M953-61h-93v321c0 18-10 29-29 29h-118c-18 0-30-11-30-29v-321h-88v141c0 18-11 29-30 29h-117c-19 0-30-11-30-29v-141h-88v237c0 17-11 28-29 28h-118c-18 0-30-10-30-28v-237h-67v266l192 142 210-127 2-1c15-4 31-5 45 9l389 368c15 14 15 39 0 54-14 14-39 13-53 0l-369-345-209 128c-18 8-33 8-47-1l-160-119v446c0 24-15 39-38 39s-39-15-39-39v-859c0-23 15-39 39-39h905c23 0 38 15 38 39s-15 39-38 39z" horiz-adv-x="1000" />

<glyph glyph-name="check-done-01-copy" unicode="&#xe806;" d="M907 469c-12 23-30 41-52 52-26 13-53 13-103 13h-72v72c0 50 0 77-13 103-12 23-30 41-52 52-26 13-53 13-103 13h-304c-49 0-77 0-102-13-23-11-41-29-53-52-13-26-13-53-13-103v-304c0-49 0-76 13-102 12-23 30-41 53-52 25-14 53-14 102-14h72v-72c0-49 0-76 13-102 12-23 30-41 53-53 25-13 53-13 102-13h304c50 0 77 0 103 13 22 12 40 30 52 53 13 26 13 53 13 102v304c0 50 0 77-13 103z m-561 52c-23-11-41-29-53-52-13-26-13-53-13-103v-152h-72c-35 0-58 0-66 5-8 4-14 10-18 17-4 9-4 32-4 66v304c0 35 0 58 4 67 4 7 10 13 18 17 8 4 31 4 66 4h304c35 0 58 0 66-4 8-4 14-10 18-17 4-9 4-32 4-67v-72h-152c-49 0-77 0-102-13z m494-459c0-34 0-57-4-66-4-7-10-14-18-17-8-5-31-5-66-5h-304c-35 0-58 0-66 5-8 4-14 10-18 17-4 9-4 32-4 66v112 192c0 35 0 58 4 67 4 7 10 13 18 17 8 4 31 4 66 4h304c35 0 58 0 66-4 8-4 14-10 18-17 4-9 4-32 4-67v-304z m-72 281c16-16 16-41 0-57l-180-180c-7-8-18-12-28-12s-20 4-28 12l-80 80c-16 16-16 41 0 57s41 15 56 0l52-52 152 152c15 15 41 15 56 0z" horiz-adv-x="960" />

<glyph glyph-name="q-rx" unicode="&#xe807;" d="M836 378h-72l-148-192-128 180c92 32 144 100 144 200 0 136-100 220-260 220h-240v-640h68v204h172c20 0 36 0 52 4l152-216-184-236h72l144 188 132-188h76l-168 236 188 240z m-464 28h-172v320h168c128 0 196-60 196-160 4-100-64-160-192-160z" horiz-adv-x="1000" />

<glyph glyph-name="q-summit-icon-select" unicode="&#xe808;" d="M969 150l-323 558c-7 11-19 19-31 19-11 0-23-8-30-19l-196-350-97 165 0 0c0 0 0 0 0 0l0 0 0 0c-3 12-15 16-30 16-12 0-23-8-31-16l-208-373c-8-11-8-23 0-35 8-11 19-15 31-15h885c11 0 23 8 30 19 4 8 4 20 0 31z m-596 165l19-30 0 0 89-150h-423l104 184 211-4z m146-180l-107 188 42 77 327 0 154-265h-416z" horiz-adv-x="992" />

<glyph glyph-name="q-summit-icon" unicode="&#xe809;" d="M969 150l-323 558c-7 11-19 19-31 19s-23-8-30-19l-196-350-97 165c-3 12-15 16-30 16-12 0-23-8-31-16l-208-373c-8-11-8-23 0-35 8-11 19-15 31-15h885c11 0 23 8 30 19 4 8 4 20 0 31z m-911-15l204 369 219-369h-423z m461 0l-107 188 203 369 320-557h-416z" horiz-adv-x="992" />

<glyph glyph-name="q-benefits" unicode="&#xe80a;" d="M423 850l14-13a524 524 0 0 1 170-113 524 524 0 0 1 210-40l20 1v-20c0-258-34-437-106-562-76-131-189-195-300-245l-8-3-8 3c-111 50-224 114-299 245-73 125-107 304-107 562v20l20-1a524 524 0 0 1 210 40 524 524 0 0 1 171 113z m375-204a562 562 0 0 0-206 42 562 562 0 0 0-169 108 562 562 0 0 0-169-108 562 562 0 0 0-206-42c1-241 34-407 101-524 68-118 171-179 274-225 172 78 234 155 274 225 68 117 100 283 101 524z m-375-578l-10 7a901 901 0 0 0-136 109c-72 71-108 139-108 200a139 139 0 0 0 139 139h0a147 147 0 0 0 116-55 147 147 0 0 0 115 55 139 139 0 0 0 138-139c0-61-36-128-107-200a901 901 0 0 0-136-109z m-115 417h0a101 101 0 0 1-100-101c0-50 33-110 96-172a855 855 0 0 1 119-98 856 856 0 0 1 119 98c63 62 97 122 97 172a101 101 0 0 1-100 101 109 109 0 0 1-92-50 27 27 0 0 0-23-16 28 28 0 0 0-24 16 109 109 0 0 1-92 50z m97-270a32 32 0 0 0-23 9l-62 62a19 19 0 0 0 28 27l56-57 145 164a19 19 0 0 0 29-25l-150-170-1-1a32 32 0 0 0-22-9z" horiz-adv-x="846" />

<glyph glyph-name="q-carriers-products-select" unicode="&#xe80b;" d="M309 398c0 13 8 22 21 22s22-9 22-22v-52h331v52c0 13 8 22 21 22s22-9 22-22v-52h309c0 104 0 178-5 208-8 61-60 105-121 100-5 0-9 0-9 0h-174c0 18 0 79 0 118 0 48-52 74-78 78l-4 0h-5c0 0-178 0-239 0h0c-43 0-83-30-96-78l0 0v-118h-160c-57 0-109-34-131-91-9-22-13-91-13-217h309v52z m43 369c5 22 26 40 52 40h0c57 0 213 0 235 0 9-5 44-13 44-40 0-34 0-95 0-113h-331v113z m378-465h309c0-161-4-330-4-339-5-17-9-35-22-48-26-35-65-52-109-48h-4c-35 0-122 0-256 0-227 0-522 0-527 0 0 0-4 0-8 0-31 0-61 9-87 31-18 22-26 48-26 78 0 39 0 109 0 187 0 48 0 96-5 144h309v-44c0-13 9-22 22-22s22 9 22 22v44h330v-44c0-13 9-22 22-22s21 9 21 22v39z" horiz-adv-x="1043" />

<glyph glyph-name="q-award-medal" unicode="&#xe80c;" d="M861 740c-12 24-31 43-54 55-27 13-55 13-107 13h-400c-52 0-80 0-107-13-23-12-42-31-54-55-14-27-14-55-14-107v-28c0-19 0-30 3-43 2-10 6-21 11-31 6-12 13-20 24-35l151-188c-42-46-64-104-64-166 0-67 26-130 73-177 47-47 110-73 177-73 67 0 130 26 177 73 47 47 73 110 73 177 0 62-22 120-63 166l150 188c11 15 19 23 24 35 6 10 9 20 11 31 3 13 3 24 3 43v28c0 52 0 80-14 107z m-561-15h400c15 0 28 0 39 0l-239-307-239 307c11 0 24 0 39 0z m-72-177c-8 11-13 17-15 21-2 3-3 7-4 10-1 4-1 13-1 26v28c0 9 0 17 0 24l216-277c-16-5-31-12-45-20l-151 188z m390-524c-63-63-173-63-236 0-31 31-49 73-49 118s18 86 49 118c4 4 9 8 13 11 0 0 1 1 1 1 0 0 0 0 1 1 63 50 162 45 221-13 31-32 49-74 49-118s-18-87-49-118z m174 581c0-13 0-22-1-26-1-3-2-7-4-10-2-4-7-10-15-21l-150-188c-15 8-30 15-46 20l216 277c0-7 0-15 0-24v-28z" horiz-adv-x="1000" />

<glyph glyph-name="connect-accounts" unicode="&#xe80d;" d="M138 90c-73 0-129 60-129 138 0 65 42 120 100 135 8 95 84 169 175 169 9 0 18 0 27-1 42 50 105 79 170 79 97 0 183-64 216-157 14 4 29 7 44 7 74 0 138-47 162-119 55-19 91-72 91-132 0-59-49-110-106-110l-750-9c0 0 0 0 0 0z m146 403c-75 0-136-65-136-146 0-10-8-18-18-19-47-5-82-48-82-100 0-55 39-99 89-99l750 10c37 0 68 32 68 71 0 46-30 86-72 97-7 1-13 6-15 13-16 61-68 102-128 102-15 0-32-6-50-12-5-2-10-1-15 1-5 3-8 7-10 12-23 88-99 149-184 149-58 0-112-27-147-74-5-6-13-9-20-7-10 2-18 2-30 2z m282-161h-46v46c0 11-9 20-20 20-11 0-19-9-19-20v-46h-47c-11 0-19-9-19-19s9-20 19-20h47v-46c0-10 8-19 19-19 11 0 19 9 19 19v46h46c11 0 20 9 20 20s-9 19-19 19z" horiz-adv-x="1000" />

<glyph glyph-name="q-content-editor-select" unicode="&#xe80e;" d="M856 830c-6-45-24-72-57-85-27-10-56-3-67 0-25 8-52 17-67 17-57 3-104-31-115-64-5-15-12-37-19-55l-1 1-19 6c-104 33-215-20-247-120-8-22-14-49-21-77l-4-15c-6-25-24-85-30-105-7-20-16-45-28-73-15-39-33-83-49-134-15-46-10-96 13-141 24-47 68-83 118-100l72-23c20-6 41-9 61-9 83 0 162 51 187 129 16 51 27 96 37 136 8 30 14 56 21 77 6 17 22 60 33 88l11 27c11 27 22 53 29 76 15 47 11 97-11 141-25 47-67 83-120 99l-18 6c6 18 13 40 18 54 6 18 40 42 80 40 8-1 27-6 58-16 14-4 53-14 91 1 28 12 63 36 75 92 4 20-25 71-31 27z m-404-429l-3-10-171 55c6 27 12 52 19 74 27 82 116 124 204 97l19-7-9-27c-15-1-29-11-33-25l-31-94c-3-9-2-19 2-28 3-5 6-9 11-12l-8-23z m24 49c-1 1-1 3-1 5l31 93c1 3 4 5 7 5 0 0 1 0 2 0l8-3c3 0 4-2 5-3 0-1 1-2 0-5l-30-93c-2-4-6-6-10-5l-8 3c-2 0-4 2-4 3z m96 144c44-14 79-44 99-82 19-36 22-77 10-114-7-22-17-46-28-72l-171 55 11 33c15 1 28 10 33 25l31 94c3 9 2 19-3 27-2 5-6 9-10 13l9 27 19-6z" horiz-adv-x="1000" />

<glyph glyph-name="switchboard" unicode="&#xe80f;" d="M844 166c0 0 0 0 0 0-21 0-40-8-55-23-5-5-9-11-13-17l-54 18v38h113c0 0 0 0 0 0 4 0 9 1 13 2 13 3 23 12 30 23 7 11 8 25 5 37l-32 122c-2 6-4 11-8 16 2 4 3 8 3 12v416c0 18-14 32-32 32h-628c-18 0-32-14-32-32v-415c0-4 1-9 3-12-3-5-6-10-8-16l-32-122c-1-4-2-8-2-13 0-27 22-49 49-49h113v-38l-54-18c-3 6-8 12-13 17-15 15-34 23-55 23 0 0 0 0 0 0-43 0-78-35-78-78s35-78 78-78c43 0 77 34 78 77l84 28v67h48v-86l-85-93c-11 6-24 10-38 10-43 0-78-35-78-78s35-78 78-78 78 35 78 78c0 15-4 29-11 40l97 105v102h78v-99c-33-9-58-39-58-75 0-43 35-78 78-78s78 35 78 78v0c0 36-25 66-58 75v99h71v-102l97-105c-7-12-11-26-11-40 0-43 35-78 78-78s78 35 78 78-35 78-78 78c-14 0-26-4-38-10l-86 93v86h48v-67l84-28c1-42 35-77 78-77 43 0 78 35 78 78s-36 77-79 77z m-650-77c0-21-17-38-38-38s-38 17-38 38 17 38 38 38c0 0 0 0 0 0 10 0 20-4 27-11 7-8 11-17 11-27l0 0z m48-191c-21 0-38 17-38 38s17 38 38 38c21 0 38-17 38-38s-17-38-38-38z m299 110c0-21-17-38-38-38-21 0-38 17-38 38s17 38 38 38c21 0 38-17 38-38z m255-72c0-21-17-38-38-38s-38 17-38 38 17 38 38 38 38-18 38-38z m-602 866h612v-399h-612v399z m-39-570c0 1 0 2 0 2l32 122c1 4 5 7 9 7h607c4 0 8-3 9-7l32-122c1-3 0-6-1-7-1-1-2-3-6-4-1 0-2 0-2 0h-671c-5 0-9 4-9 9z m689-181c-21 0-38 17-38 38v0c0 10 4 20 11 27 7 7 17 11 27 11h0c21 0 38-17 38-38s-17-38-38-38z" horiz-adv-x="1000" />

<glyph glyph-name="myquility-select" unicode="&#xe810;" d="M471 568l-59 13-32 52 0 0c-6 12-18 18-31 18s-25-7-31-18l-31-52-60-13 0 0c-12-3-23-13-27-25-4-13-1-26 7-36l40-45-5-61c-1-12 4-26 14-33s24-10 37-4l56 24 56-24c12-6 26-4 37 4s16 20 15 33l-5 61 40 45c8 10 11 24 7 36-5 13-15 23-28 25l0 0z m225-67c0 124-65 238-172 300-106 63-239 65-346 4-107-59-175-172-178-296s60-239 166-304l-132-294c-3-6-1-13 4-17 4-6 11-7 17-4l122 44 58-74 0 0c4-4 9-6 13-6 1 0 2 0 2 0 6 1 10 5 13 11l84 210 84-210c2-6 8-10 13-11 1 0 2 0 2 0 5 0 9 2 12 6l59 74 121-46 0 0c6-2 13-1 17 5s7 12 3 17l-128 296c103 63 166 175 166 295l0 0z m-348-314c-83 0-164 33-223 92s-93 140-93 223 34 164 93 223 140 93 223 93 164-34 223-93 93-140 93-223-34-163-93-223-140-92-223-92l0 0z m0 596c-75 0-147-29-199-82-53-53-82-125-82-199s29-147 82-199c53-53 125-82 199-82s147 29 199 82c53 53 82 125 82 199 0 75-30 146-82 199-53 52-124 82-199 82l0 0z m0-530c-66 0-129 26-176 73s-73 109-73 176 26 129 73 176 109 73 176 73c66 0 129-26 176-73s73-109 73-176c0-65-26-129-73-176s-110-73-176-73l0 0z" horiz-adv-x="698" />

<glyph glyph-name="q-dfl-icon-circle" unicode="&#xe811;" d="M528 446h-120v-200h120c56 0 100 48 100 100 0 60-48 100-100 100z m-28 400c-272 0-496-224-496-496s224-496 496-496 496 224 496 496-224 496-496 496z m-364-760v524h52v-468h352c112 0 208 92 208 208 0 112-92 208-208 208h-192v56h192c144 0 264-120 260-264 8-148-108-264-256-264h-408z m220 108v312h172c84 0 152-68 152-152s-68-156-152-156h-172z m196-216h-312v52h312c176 0 324 140 324 320s-140 324-320 324h-4-256v-480h-56v528h312c204-4 372-172 368-380 0-200-164-364-368-364z" horiz-adv-x="1000" />

<glyph glyph-name="q-bird-dog-select" unicode="&#xe812;" d="M612-90c-8 0-16 8-16 16 0 32-4 72-12 108-8 64-20 136-8 216h0c-92 0-104 32-136 136-32 104-20 164-20 172 0 8 48 44 52 44 16 12 76 44 84 44l0 0 4 0c8 0 12-4 16-12 0 0 28-108 72-168l8-12c12-16 20-28 32-44 36 0 68-4 96-4 124 0 136 16 140 20 12 20 20 80 20 156 0 4-4 8-8 8-24 4-60 8-76 12-76 16-100 52-116 80-16 24-28 44-76 56-24 4-48 8-68 8-28 0-56-4-80-12-44-16-80-48-108-92-20-36-40-72-56-108-52-116-120-260-228-320-28-16-52-28-80-40l-4 0-4-4c-8 0-12 4-16 8 0 4-4 8 0 12s4 8 8 8c28 12 52 28 80 40 96 52 160 192 212 304 20 44 36 80 56 108 44 80 124 124 220 124 24 0 48-4 76-8 60-12 80-44 96-68 16-28 32-52 96-64 8 0 24-4 72-12 20-4 36-20 36-40 0-60 0-140-24-172-8-16-36-36-164-36l0 0c-24 0-48 0-80 4 16-36 20-60 12-80-12-24-40-40-84-40-8 0-20 0-28 0-16-76-4-148 4-212 4-40 12-76 12-112 4-20-4-24-12-24z" horiz-adv-x="1000" />

<glyph glyph-name="q-bird-dog" unicode="&#xe813;" d="M620-110c-8-4-32 0-32 20 0 32 4 68-4 108-8 68-24 144-12 228l12 0c-96 0-108 32-144 144-32 108-20 172-20 180s8 12 16 12c8 0 12-4 12-8 0-4 4-8 4-12 0 0-8-64 20-164 28-100 36-120 108-120 16 0 36 0 64 4 32 4 56 12 60 24 12 28-32 96-64 132l-8 12c-52 68-76 176-80 188-4 8 4 16 12 20l0 0h4c8 0 12-4 16-12 0 0 28-112 76-176l8-12c12-16 16-24 28-40 36 0 76-4 108-4 128 0 132 12 136 16 12 20 32 80 32 160 0 4-4 8-8 8-24 4-64 8-80 12-80 16-108 48-124 76-16 24-28 48-80 60-24 4-44 8-64 8-28 0-60-4-84-12-48-16-88-44-116-92-24-36-40-72-56-112-48-120-120-272-232-336-32-12-60-32-88-44 0 0-16-4-20-4-4 0-12 8-16 12 0 4-8 8-4 12s8 4 12 8c28 12 56 24 84 40 100 56 168 200 220 320 20 48 36 84 60 112 48 84 128 128 232 128 24 0 52-4 80-8 64-12 84-48 100-72 16-28 32-56 100-68 8 0 24-4 76-12 20-4 36-20 36-40 0-64 0-148-24-180-8-16-36-36-172-36l0 0c-24 0-52 0-84 4 16-36 20-64 12-84-12-24-40-40-88-40-8 0-20 0-28 0-16-80-4-156 4-220 4-40 12-80 12-116 0-12-4-24-12-24z" horiz-adv-x="1000" />

<glyph glyph-name="q-elipses-h-select" unicode="&#xe814;" d="M144 223c-70 0-127 57-127 127s57 127 127 127c70 0 127-57 127-127 0-70-57-127-127-127z m356 0c-70 0-127 57-127 127s57 127 127 127 127-57 127-127c0 0 0 0 0 0 0-70-57-127-127-127z m356 0c-70 0-127 57-127 127s57 127 127 127c70 0 127-57 127-127 0-70-57-127-127-127z" horiz-adv-x="1000" />

<glyph glyph-name="check-done-01" unicode="&#xe815;" d="M907 469c-12 23-30 41-52 52-26 13-53 13-103 13h-72v72c0 50 0 77-13 103-12 23-30 41-52 52-26 13-53 13-103 13h-304c-49 0-77 0-102-13-23-11-41-29-53-52-13-26-13-53-13-103v-304c0-49 0-76 13-102 12-23 30-41 53-52 25-14 53-14 102-14h72v-72c0-49 0-76 13-102 12-23 30-41 53-53 25-13 53-13 102-13h304c50 0 77 0 103 13 22 12 40 30 52 53 13 26 13 53 13 102v304c0 50 0 77-13 103z m-561 52c-23-11-41-29-53-52-13-26-13-53-13-103v-152h-72c-35 0-58 0-66 5-8 4-14 10-18 17-4 9-4 32-4 66v304c0 35 0 58 4 67 4 7 10 13 18 17 8 4 31 4 66 4h304c35 0 58 0 66-4 8-4 14-10 18-17 4-9 4-32 4-67v-72h-152c-49 0-77 0-102-13z m494-459c0-34 0-57-4-66-4-7-10-14-18-17-8-5-31-5-66-5h-304c-35 0-58 0-66 5-8 4-14 10-18 17-4 9-4 32-4 66v112 192c0 35 0 58 4 67 4 7 10 13 18 17 8 4 31 4 66 4h304c35 0 58 0 66-4 8-4 14-10 18-17 4-9 4-32 4-67v-304z m-72 281c16-16 16-41 0-57l-180-180c-7-8-18-12-28-12s-20 4-28 12l-80 80c-16 16-16 41 0 57s41 15 56 0l52-52 152 152c15 15 41 15 56 0z" horiz-adv-x="960" />

<glyph glyph-name="q-iul-icon" unicode="&#xe816;" d="M264 850h164v-490h-164v490z m478-498c-65-3-126 17-176 61-44 47-67 109-62 170v267h165v-264c-3-26 6-56 20-79 15-18 35-26 56-24 20 0 41 9 56 24 14 23 20 50 20 79v264h161v-270c3-64-17-126-61-170-50-41-114-64-179-58z m314 498h164v-361h220v-129h-384v490z m-918-1000c-24 0-50 6-71 18-20 11-38 26-49 46-12 21-18 44-18 68s6 47 18 67c11 21 29 36 49 47 24 15 47 21 74 21 20 0 41-3 61-12 18-9 33-20 44-32l-41-38c-14 20-38 29-64 29-15 0-30-3-44-12-12-5-24-17-30-29-2-12-8-23-8-41 0-15 3-29 11-41 6-12 18-24 30-29s26-12 44-12c26 0 50 12 64 29l38-35c-11-15-26-26-44-35-23-6-44-9-64-9z m328 103c0 0 0-6 0-15h-149c3-12 9-24 20-29 12-9 24-12 38-12 9 0 18 0 27 6 9 3 14 9 23 14l30-32c-21-23-50-35-83-32-20 0-41 3-58 12-18 8-29 20-38 35s-15 35-15 53c0 17 6 35 15 52 9 15 23 30 38 36 17 8 35 14 53 11 17 0 35-3 52-11 15-9 30-21 39-36 5-14 8-32 8-52z m-102 58c-12 0-24-3-33-11s-14-18-14-30h97c-3 12-6 24-15 30-12 8-24 11-35 11l0 0z m196 15c6 9 18 18 27 21 11 5 26 8 41 5v-52c-6 0-12 0-12 0-15 0-29-3-38-15s-15-27-15-41v-94h-59v197h56v-21z m235-161c-6-6-15-9-21-9-9-3-17-3-23-3-21 0-38 6-56 17-15 15-20 33-20 53v82h-30v44h30v47h58v-47h50v-44h-50v-79c0-6 3-14 6-20 6-6 12-6 18-6 8 0 17 3 23 6l15-41z m32 187h59v-196h-59v196z m29 27c-8 0-17 3-26 9-6 5-9 14-9 23s3 18 9 24c6 5 18 8 26 8s18-3 27-8c6-6 9-15 9-24s-3-18-9-23c-6-6-18-9-27-9l0 0z m144-32h50v-44h-50v-150h-59v150h-29v44h29v8c0 21 6 38 21 53s35 21 56 21c8 0 17 0 23-3s15-3 21-9l-15-41c-6 6-15 6-23 6-18 0-27-9-27-30l3-5z m109 5h58v-196h-56l-2 196z m29 27c-9 0-18 3-27 9-5 5-8 14-8 23s3 18 8 24c6 5 18 8 27 8 9 0 17-3 26-8 6-6 9-15 9-24s-3-18-9-23c-6-6-17-9-26-9l0 0z m276-126c0 0 0-6 0-15h-150c3-12 9-24 18-29 11-9 23-12 38-12 8 0 17 0 26 6 9 3 15 9 24 14l29-32c-21-23-50-35-82-32-21 0-41 3-59 12-17 8-29 20-38 35s-15 35-15 53c0 17 6 35 15 52 9 15 23 30 38 36 18 8 35 14 53 11 17 0 35-3 53-11 14-9 29-21 38-36 6-14 12-32 12-52z m-103 58c-12 0-24-3-32-11s-15-18-15-30h97c-3 12-6 24-15 30-12 8-23 11-35 11l0 0z m340 115v-273h-56v23c-14-17-38-26-61-26-18 0-35 3-50 12-15 8-26 20-35 35-9 17-15 35-12 53 0 17 3 38 12 53 9 14 20 26 35 35 15 9 32 11 50 11 23 0 44-8 58-23v97h59v3z m-105-226c14 0 26 6 35 14 8 12 14 27 14 42s-6 29-14 41c-9 8-24 14-35 14-15 0-27-6-36-14-8-12-14-27-14-41s6-30 14-42c9-11 21-14 36-14z" horiz-adv-x="1651" />

<glyph glyph-name="q-award-trophy" unicode="&#xe817;" d="M952 674c-8 20-25 36-45 45-15 6-29 6-53 6h-62c-1 11-2 19-5 28-9 24-27 42-50 50-14 5-26 5-47 5h-380c-21 0-33 0-47-5-23-8-41-26-50-49-3-10-4-18-4-29h-63c-23 0-38 0-53-6-20-9-36-25-45-45-6-16-6-30-6-53v-21c0-42 0-64 5-85 16-57 61-102 118-118 16-4 31-5 55-5 33-108 125-189 238-206v-44h-18c-105 0-190-85-190-190 0-33 27-60 60-60h380c33 0 60 27 60 60 0 105-85 190-190 190h-18v44c113 17 206 98 238 206 24 0 39 1 55 5 57 16 102 61 118 118 5 21 5 43 5 85v21c0 23 0 37-6 53z m-744-199c-9 1-16 2-21 3-29 8-51 30-59 59-3 10-3 29-3 63v21c0 10 0 20-2 20 3 1 13 1 23 1h62v-167z m352-417c51 0 94-35 104-83h-328c11 48 53 83 104 83h120z m148 649v-232c0-115-93-208-208-208s-208 93-208 208v232c0 9-1 15-2 18 3 0 5 0 9 0 3 0 7 0 11 0h380c9 0 15 0 18 2 1-5 0-11 0-20z m167-107c0-34 0-53-3-63-7-29-30-51-59-59-5-1-12-2-21-3v167h62c10 0 20 0 20 1 1-2 1-12 1-22v-21z" horiz-adv-x="1000" />

<glyph glyph-name="q-atom" unicode="&#xe818;" d="M895 257c-9 30-21 61-37 92 72 145 71 279-4 354-58 58-151 73-261 40-30-9-61-21-92-36-141 70-276 73-354-4s-74-213-4-354c-71-145-70-279 4-353 59-59 152-73 262-41 30 9 61 21 92 37 31-16 62-28 92-37 39-11 75-17 108-17 63 0 115 19 153 58 59 58 73 151 41 261z m-278 406c78 23 143 16 179-19 40-40 43-118 10-206-28 40-62 80-99 117-38 38-77 71-118 99 10 4 19 7 28 9z m-232-628c-78-23-143-16-179 20-40 40-43 117-10 206 28-40 61-80 99-118 37-37 77-71 118-99-10-3-19-6-28-9z m411 20c-36-36-101-43-179-20-9 3-19 6-28 9 41 28 81 62 118 99 13 13 26 26 37 39 16 18 14 44-3 59-17 16-44 14-59-3-11-12-22-24-34-36-46-47-96-86-147-116-51 30-101 69-147 116-160 160-228 362-148 442 43 42 120 43 207 10-41-28-81-61-118-99-14-13-27-27-39-41-15-17-14-44 4-59 17-15 43-13 58 4 12 13 23 25 36 37 46 47 96 86 147 116 50-30 100-69 147-116 51-51 94-107 125-163 1-3 2-5 4-8 16-30 29-61 38-92 23-78 16-143-19-178z m-213 295c0-46-37-83-83-83-46 0-83 37-83 83 0 46 37 83 83 83 46 0 83-37 83-83z" horiz-adv-x="1000" />

<glyph glyph-name="q-clock-rewind" unicode="&#xe819;" d="M542 558v-186l106-71c19-12 24-38 12-57-8-12-22-19-35-19-8 0-16 2-23 7l-125 83c-12 8-19 21-19 35v208c0 23 19 42 42 42s42-19 42-42z m433-241l-83 83c-16 17-43 17-59 0l-83-83c-17-16-17-43 0-59s42-16 59 0l16 16c-35-147-167-257-325-257-184 0-333 149-333 333s149 333 333 333c117 0 228-62 287-164 12-20 38-26 57-14 20 11 27 37 15 57-75 126-212 205-359 205-230 0-417-187-417-417 0-230 187-417 417-417 201 0 369 144 408 333l8-8c17-16 43-16 59 0s17 43 0 59z" horiz-adv-x="1000" />

<glyph glyph-name="advanced-markets" unicode="&#xe81a;" d="M965 606c0 49-108 71-209 71s-209-22-209-71l0 0 0 0v-130c-16 3-32 5-49 5-15 0-31-2-45-4v59c0 1 0 3 0 4s0 2 0 3c0 49-108 71-209 71-86 0-178-16-203-52-4-3-6-7-6-12v-104l0 0 0 0v-96l0 0 0 0v-98-1-1c0-49 108-71 209-71 13 0 25 0 38 1 31-90 116-155 216-155 126 0 229 103 229 229 0 30-6 58-16 84 15-1 30-2 45-2 101 0 209 22 209 71l0 0v199l0 0 0 0z m-721-21c119 0 181-30 181-43s-61-43-181-43-181 31-181 43c0 13 62 43 181 43z m-181-81c39-22 112-33 181-33s142 10 181 33v-35c-36-12-67-33-93-60-25-4-54-6-88-6-119 0-181 30-181 43 0 0 0 58 0 58z m0-97c39-22 112-33 181-33 21 0 42 1 63 3-14-21-24-44-30-70-10-1-21-1-32-1-119 0-181 30-181 43l-1 58 0 0z m181-201c-119 0-181 30-181 43v1 1 60c39-22 112-33 181-33 9 0 18 0 27 1-1-9-1-17-1-27 0-16 2-31 5-46-10 0-20 0-31 0z m254-154c-110 0-200 90-200 200s90 200 200 200 200-90 200-200-89-200-200-200z m439 354c0-13-61-43-181-43-22 0-41 1-59 3-23 40-57 72-98 92 41-15 100-22 158-22 69 0 142 10 181 33l-1-63 0 0z m0 101c0-13-61-43-181-43s-181 30-181 43v61c39-22 112-33 181-33s142 10 181 33v-61z m-181 56c-119 0-181 30-181 43s61 43 181 43 181-30 181-43-62-43-181-43z m-181-362c-3-25-25-51-58-55v-33c0-8-6-14-14-14s-14 6-14 14v33c-48 7-65 41-67 55-1 8 4 15 11 17 8 1 15-4 17-11 0 0 8-31 53-33 26-1 43 15 45 31 2 19-16 34-47 38-42 7-67 27-67 56 0 30 22 54 55 60h1v33c0 8 6 14 14 14s14-6 14-14v-33c24-4 48-19 58-46 3-7-1-16-8-18-7-3-16 1-18 8-9 23-35 32-56 28-7-1-31-7-31-32 0-19 36-26 43-27 55-11 72-45 69-71z" horiz-adv-x="1000" />

<glyph glyph-name="advanced-markets-selected" unicode="&#xe81b;" d="M580 639c0 13 65 45 191 45 126 0 190-32 191-45 0-13-65-45-191-45-126 0-191 31-191 45z m191-188c73 0 150 11 191 35v-66c0-13-65-45-191-45-23 0-45 1-64 3 21-36 33-77 33-121 0-133-108-242-242-242-118 0-215 83-237 195-10 0-20-1-31-1-126 0-191 32-191 45 0 1 0 1 0 2 0 1 0 1 0 2v63c41-24 118-36 191-36 9 0 18 0 28 1 1 11 3 21 6 31-11-1-22-1-33-1-126 0-191 31-191 45v61c40-24 117-35 190-35 22 0 44 1 66 3 8 12 17 23 27 34-26-4-57-7-93-7-126 0-191 31-191 45v67c41-23 118-35 191-35s150 11 191 35v-43c24 8 50 13 77 13 29 0 56-5 82-14v1c41-24 118-35 191-35z m-312-144c1 26 25 33 33 34 22 4 50-5 59-29 3-8 11-12 19-9s12 11 9 19c-11 28-35 43-61 48v35c0 8-7 15-15 15s-15-7-15-15v-35h-1c-35-6-58-31-58-63 0-30 26-52 71-59 33-6 52-21 50-41-2-17-20-33-47-32-47 2-56 35-56 35-2 8-10 14-18 12s-14-10-12-18c3-14 21-50 71-58v-35c0-8 7-15 15-15s15 7 15 15v35c35 5 58 31 61 58 3 28-15 64-75 74-7 1-45 8-45 29z m-229 218c126 0 191 32 191 45s-65 45-191 45-191-32-191-45c0-14 65-45 191-45z m350 74v-72c0-14 65-45 191-45 126 0 191 31 191 45v72c-41-24-118-35-191-35-73 0-150 11-191 35z" horiz-adv-x="1000" />

<glyph glyph-name="q-v-mentor" unicode="&#xe81c;" d="M584 496h-423c-15 0-27 12-27 27s12 27 27 27h424c15 0 27-12 27-27s-13-27-28-27z m-86-87c0 15-13 27-28 27h-309c-15 0-27-12-27-27s12-27 27-27h309c15 0 28 12 28 27z m0-114c0 15-13 27-28 27h-309c-15 0-27-12-27-27s12-27 27-27h309c15 0 28 12 28 27z m0-114c0 15-13 27-28 27h-309c-15 0-27-12-27-27s12-27 27-27h309c15 0 28 12 28 27z m120-175c0 15-12 27-27 27h-205c-15 0-27-12-27-27s12-27 27-27h205c15 0 27 12 27 27z m166 59v-125c0-40-34-74-75-74h-596c-42 0-75 34-75 75v819c0 40 33 74 74 74h520c26 0 151-121 151-146v-179c109-16 192-110 192-222s-83-205-191-222z m-155 618h98c-19 22-76 77-98 94v-94z m101-743v123c-117 10-208 107-208 225s91 214 208 224v116h-120c-19 0-35 16-35 35v117h-462c-12 0-21-9-21-20v-820c0-11 9-20 21-20h596c11 0 21 9 21 20z m191 348c0 94-77 170-173 170s-173-76-173-170 78-171 173-171 173 76 173 171z m-188-93l137 136c11 10 11 27 0 38-10 11-27 11-38 0l-128-126-40 39c-10 11-28 11-38 0-11-10-11-28 0-38l49-49c8-8 19-12 29-12s21 4 29 12z m-3416 478v-510c0-61-50-113-110-113h-290l45-126h47c15 0 27-12 27-27s-12-27-27-27h-378c-15 0-27 12-27 27s12 27 27 27h54l45 126h-291c-59 0-110 52-110 113v510c0 61 50 112 110 112h768c60 0 110-51 110-112z m-457-623h-73l-45-126h162l-44 126z m402 623c0 31-25 58-55 58h-769c-29 0-55-27-55-58v-510c0-31 26-58 55-58h769c30 0 55 27 55 58v510z m-43-455v408c0 35-29 63-63 63h-666c-34 0-63-28-63-63v-407c0-35 29-63 63-63h666c34-1 63 28 63 62z m-63 417c5 0 9-4 9-9v-407c0-5-4-9-9-9h-666c-5 0-8 4-8 9v407c0 5 3 9 8 9h666z m-414-215v109c0 22-18 41-41 41h-100c-22 0-41-18-41-41v-109c0-22 18-41 41-41h100c23 0 41 19 41 41z m-128 95h74v-82h-74v82z m466-202c0 15-12 27-27 27h-466c-15 0-27-12-27-27s12-27 27-27h466c15 0 27 12 27 27z m5 110c0 15-13 27-28 27h-221c-15 0-27-12-27-27s12-28 27-28h221c15 0 28 13 28 28z m0 109c0 15-13 27-28 27h-221c-15 0-27-12-27-27s12-27 27-27h221c15 0 28 12 28 27z" horiz-adv-x="1000" />

<glyph glyph-name="switchboard-select" unicode="&#xe81d;" d="M844 166c0 0 0 0 0 0-21 0-40-8-55-23-5-5-9-11-13-17l-54 18v38h113c0 0 0 0 0 0 4 0 9 1 13 2 13 3 23 12 30 23 7 11 8 25 5 37l-32 122c-2 6-4 11-8 16 2 4 3 8 3 12v416c0 18-14 32-32 32h-628c-18 0-32-14-32-32v-415c0-4 1-9 3-12-3-5-6-10-8-16l-32-122c-1-4-2-8-2-13 0-27 22-49 49-49h113v-38l-54-18c-3 6-8 12-13 17-15 15-34 23-55 23 0 0 0 0 0 0-43 0-78-35-78-78s35-78 78-78c43 0 77 34 78 77l84 28v67h48v-86l-85-93c-11 6-24 10-38 10-43 0-78-35-78-78s35-78 78-78 78 35 78 78c0 15-4 29-11 40l97 105v102h78v-99c-33-9-58-39-58-75 0-43 35-78 78-78s78 35 78 78v0c0 36-25 66-58 75v99h71v-102l97-105c-7-12-11-26-11-40 0-43 35-78 78-78s78 35 78 78-35 78-78 78c-14 0-26-4-38-10l-86 93v86h48v-67l84-28c1-42 35-77 78-77 43 0 78 35 78 78s-36 77-79 77z m-650 636h612v-399h-612v399z m-39-570c0 1 0 2 0 2l32 122c1 4 5 7 9 7h607c4 0 8-3 9-7l32-122c1-3 0-6-1-7-1-1-2-3-6-4-1 0-2 0-2 0h-671c-5 0-9 4-9 9z" horiz-adv-x="1000" />

<glyph glyph-name="q-call-queue" unicode="&#xe81e;" d="M863 163l-77 26c-1 1-3 1-4 1-10 2-28 5-43 2-16-3-31-11-43-23l-5-5c-30 21-56 47-77 76l5 6c12 11 20 26 24 42 2 12 3 18-29 122-8 26-31 45-58 47-105 8-109 7-120 2-11-5-21-12-29-21s-14-19-18-31c-4-11-5-23-4-36 8-76 34-150 75-213 38-60 89-111 148-148 64-42 138-68 214-76 3-1 5-1 8-1 9 0 19 2 28 5 11 4 22 10 31 18h0c9 8 16 18 20 29 5 10 9 20-2 122-2 25-20 48-44 56z m-325 212c12-39 18-61 21-72l-27-27c-14-14-16-34-7-50 36-63 88-116 151-151 16-10 37-7 50 6l27 29c1 0 73-22 73-22l4-71c-62 6-123 28-177 63-49 31-91 73-122 123-34 52-56 112-61 176l68-4z m-211-11c0-23-19-42-42-42h-160c-23 0-41 19-41 42s18 42 41 42h160c23 0 42-19 42-42z m0-194c0-24-19-42-42-42h-160c-23 0-41 18-41 42s18 41 41 41h160c23 0 42-18 42-41z m0-195c0-23-19-42-42-42h-160c-23 0-41 19-41 42s18 42 41 42h160c23 0 42-19 42-42z m548 792h-750c-23 0-42-19-42-42v-167c0-23 19-41 42-41h750c23 0 42 18 42 41v167c0 23-19 42-42 42z m-42-167h-666v83h666v-83z" horiz-adv-x="1000" />

<glyph glyph-name="pcs" unicode="&#xe81f;" d="M955 139l-96 97c-4 5-12 5-17 0 0 0 0 0-1 0 0 0 0 0 0 0l-38-37s-1 1-1 1c-2 2-7 7-12 13-26 27-73 77-107 92-45 20-132 9-152 0-16-6-33-24-41-32h-143c-18 0-33-7-45-19l-85 29c-10 14-44 61-65 76-27 17-86-10-104-19-3-2-6-5-6-8-1-4-1-8 2-11l116-162c0-1 1-1 2-2l126-116c3-2 6-4 9-4l334 0-26-25c-4-3-5-7-4-11-1-4 0-9 3-12l96-96c3-3 6-4 9-4s6 1 9 4c5 4 5 12 0 17l-89 90 221 210 87-88c3-3 6-4 9-4s7 1 9 3c5 5 5 13 0 18z m-300-77l-353 0-122 113-107 149c27 12 56 20 65 14 17-11 50-56 61-73 2-2 4-4 6-4l82-28c-3-8-5-16-5-25 0-35 29-64 65-64h171c7 0 13 5 13 12s-6 13-13 13h-171c-22 0-40 17-40 39s18 40 40 40h149s0 0 0 0c1 0 2 0 3 0 1 1 1 1 2 1 1 0 1 1 2 1 1 1 1 1 2 2 0 0 0 0 0 0 6 6 24 25 36 30 13 6 94 18 132 1 29-13 76-63 98-88 7-7 11-11 13-13l-127-121c-1 0-2 0-2 0z m-366 448l-24-139c-1-5 1-9 5-12 2-1 4-2 6-2 2 0 4 1 6 1l125 66 125-66c3-2 8-1 12 1 3 3 5 7 4 12l-24 139 102 98c3 3 4 8 3 12-2 4-5 7-10 8l-139 20-63 127c-2 4-6 6-10 6s-9-2-11-6l-62-127-140-20c-4-1-8-4-9-8-1-4 0-9 3-12l101-98z m54 116c4 1 7 3 9 7l55 111 55-111c1-4 4-6 8-7l123-17-89-87c-3-3-4-6-3-10l21-122-110 57c-3 2-7 2-11 0l-110-57 21 122c1 4 0 7-3 10l-89 87 123 17z" horiz-adv-x="1000" />

<glyph glyph-name="events" unicode="&#xe820;" d="M628 274v130h137v-130h-137z m137-206v130h-136v-130h136z m-197 206v130h-136v-130h136z m0-206v130h-136v-130h136z m-196 206v130h-137v-130h137z m0-206v130h-137v-130h137z m524 607h-140v52c0 11-9 20-20 20s-20-9-20-20v-52h-196v52c0 11-9 20-20 20s-20-9-20-20v-52h-196v52c0 11-9 20-20 20s-19-9-19-20v-52h-141c-53 0-96-43-96-96v-554c0-53 43-96 96-96h792c53 0 96 43 96 96v554c-1 53-44 96-96 96z m-792-40h140v-50c0-11 9-20 20-20s20 9 20 20v50h196v-50c0-11 9-20 20-20s20 9 20 20v50h196v-50c0-11 9-20 20-20s20 9 20 20v50h140c31 0 56-25 56-56v-47h-904v47c0 31 25 56 56 56z m792-666h-792c-31 0-56 25-56 56v467h904v-467c0-31-25-56-56-56z" horiz-adv-x="1000" />

<glyph glyph-name="q-engage-select" unicode="&#xe821;" d="M981 350c0 68-53 124-120 130l-404 1c-68 0-125-58-125-126l0-162c3-70 61-128 131-128h360l1 0 64-52c11-11 20-17 34-17 28 0 53 25 60 58l-1 296z m-484-125c-22 0-40 18-40 40 0 21 18 39 40 39s39-18 39-39c0-22-18-40-39-40z m152 0c-21 0-39 18-39 40 0 21 18 39 39 39 22 0 40-18 40-39 0-22-18-40-40-40z m153 0c-22 0-40 18-40 40 0 21 18 39 40 39s39-18 39-39c0-22-18-40-39-40z m-452 228c-2 0-3 0-5 0-21 0-39 17-39 39 0 22 18 40 39 40 22 0 40-18 40-40 0-4-1-8-2-12 22 13 47 22 74 22l3 0c5 16 20 29 38 29 18 0 33-13 37-29l133 0v77c0 71-60 132-132 132h-386c-71 0-131-61-131-132v-301c0-18 15-40 34-50 10-6 14-6 25-6 8 0 24 7 32 15l66 54h135l0 64c0 38 15 72 39 98z m-157 0c-22 0-40 17-40 39 0 22 18 40 40 40 21 0 39-18 39-40 0-22-17-39-39-39z" horiz-adv-x="1000" />

<glyph glyph-name="q-dataflow-02" unicode="&#xe822;" d="M875 135c0 59-2 93-18 124-16 32-41 57-73 73-36 18-74 18-151 18h-91v125h208c43 0 67 0 90 10 30 12 54 36 67 67 10 23 10 47 10 90s0 66-10 89c-13 31-37 55-67 68-23 9-47 9-90 9h-500c-43 0-66 0-89-9-31-13-55-37-68-68-10-23-10-46-10-89s0-67 10-90c13-31 37-55 68-67 23-10 46-10 89-10h208v-125h-91c-77 0-115 0-151-18-31-16-57-41-73-73-16-31-18-65-18-124-48-18-83-64-83-118 0-69 56-125 125-125s125 56 125 125c0 54-35 100-84 118 1 45 2 71 9 86 9 16 21 29 37 37 18 9 51 9 113 9h91v-132c-48-18-83-64-83-118 0-69 56-125 125-125s125 56 125 125c0 54-35 100-83 118v132h91c62 0 95 0 113-9 16-8 29-21 37-37 7-15 9-41 9-86-49-18-84-64-84-118 0-69 56-125 125-125s125 56 125 125c0 54-34 100-83 118z m-708-160c-23 0-42 19-42 42s19 41 42 41 41-18 41-41-18-42-41-42z m333 0c-23 0-42 19-42 42s19 41 42 41 42-18 42-41-19-42-42-42z m-250 583c-30 0-50 0-58 4-10 4-18 12-22 22-3 8-3 28-3 58s0 50 3 57c4 11 12 19 22 23 8 3 28 3 58 3h500c30 0 50 0 58-3 10-4 18-12 22-23 3-7 3-27 3-57s0-50-3-58c-4-10-12-18-22-22-8-4-28-4-58-4h-500z m583-583c-23 0-41 19-41 42s18 41 41 41 42-18 42-41-19-42-42-42z" horiz-adv-x="1000" />

<glyph glyph-name="q-flag-01" unicode="&#xe823;" d="M850 762c-15 7-33 4-45-6 0-1-36-31-138-31-55 0-102 19-151 39-55 22-112 44-183 44-135 0-187-44-196-53-8-8-12-19-12-30v-792c0-23 19-41 42-41s41 18 41 41v270c19 9 57 22 125 22 55 0 102-19 152-39 54-22 111-44 182-44 135 0 187 45 196 54 8 7 12 18 12 29v500c0 16-10 31-25 37z m-58-514c-19-9-57-23-125-23-55 0-102 19-151 39-55 22-112 44-183 44-54 0-95-7-125-16v411c19 9 57 22 125 22 55 0 102-19 152-39 54-22 111-44 182-44 54 0 95 7 125 16v-410z" horiz-adv-x="1000" />

<glyph glyph-name="perform-dash" unicode="&#xe824;" d="M1195 463l0 0a32 32 0 0 1-46-1l-291-315a161 161 0 1 1 47-43l291 314a32 32 0 0 1-1 46m-435-549a96 96 0 1 0 111 99 96 96 0 0 0-111-99m748 69h-289a32 32 0 0 0-32 32v64a414 414 0 0 1-26 144 32 32 0 0 0 17 41h0a32 32 0 0 0 43-18 478 478 0 0 0 30-167v-20a12 12 0 0 1 12-12h201a12 12 0 0 1 12 12v9a706 706 0 1 1-1412 11v-20a12 12 0 0 1 12-12h201a12 12 0 0 1 12 12v20a481 481 0 0 0 716 420 32 32 0 0 0 11-46l0 0a32 32 0 0 0-42-10 417 417 0 0 1-562-150 431 431 0 0 1-59-222v-56a32 32 0 0 0-32-32h-289a32 32 0 0 0-32 32v64a770 770 0 1 0 1540 1v-65a32 32 0 0 0-32-32" horiz-adv-x="1540" />

<glyph glyph-name="q-flag-02" unicode="&#xe825;" d="M846 394l59 107c12 21 20 36 18 55-2 18-12 34-26 44-16 12-34 12-58 12h-209v67c0 27 0 45-9 63-8 16-21 28-37 36-18 10-36 10-63 10h-331c-35 0-56 0-76-13-17-10-30-27-36-46-7-22-2-43 7-76l1-5c0 0 0 0 0 0l176-704c4-19 21-32 40-32 3 0 7 1 10 2 23 5 36 28 31 50l-97 388h168v-67c0-27 0-45 9-63 9-16 21-28 37-36 18-10 36-10 63-10h316c24 0 42 0 58 12 14 10 24 26 25 43 3 21-5 36-17 57l-59 106z m-621 42l-60 237c-3 12-6 24-7 31 7 0 19 0 32 0h331c12 0 24 0 25 2 0-3 0-15 0-27v-218c0-12 0-24 2-24-3-1-15-1-27-1h-296z m536-55c2-9 5-16 10-23l54-98h-302c-12 0-24 0-24-2-1 3-1 15-1 27v67h23c27 0 45 0 63 9 16 8 29 21 37 37 9 18 9 36 9 63v67h195l-54-98c-5-7-8-14-10-23-2-9-2-17 0-26z" horiz-adv-x="1000" />

<glyph glyph-name="q-hourglass-01" unicode="&#xe826;" d="M833-25h-41v73c0 37 0 57-6 78-5 19-13 37-25 53-12 18-28 31-56 55l-140 116 140 117c28 23 44 36 56 54 12 16 20 34 25 53 6 21 6 41 6 78v73h41c23 0 42 19 42 42s-19 41-42 41h-666c-23 0-42-18-42-41s19-42 42-42h41v-73c0-37 0-57 6-78 5-19 14-37 25-53 12-18 28-31 56-55l140-116-140-116c-28-24-44-37-56-55-11-16-20-34-25-53-6-21-6-41-6-78v-73h-41c-23 0-42-19-42-42s19-41 42-41h666c23 0 42 18 42 41s-19 42-42 42z m-484 555c-24 20-36 30-42 39-6 8-10 17-12 26-3 11-3 26-3 57v73h416v-73c0-31 0-46-2-57-3-9-7-18-13-26-6-9-18-19-42-39l-151-126-151 126z m359-555h-416v73c0 31 0 46 3 57 2 9 6 18 12 26 6 9 18 19 42 39l151 126 152-127c23-19 35-29 41-38 6-8 10-17 13-26 2-11 2-26 2-57v-73z" horiz-adv-x="1000" />

<glyph glyph-name="q-keypad" unicode="&#xe827;" d="M333 600c0-23-18-42-41-42h-84c-23 0-41 19-41 42s18 42 41 42h84c23 0 41-19 41-42z m209 42h-84c-23 0-41-19-41-42s18-42 41-42h84c23 0 41 19 41 42s-18 42-41 42z m166-84h84c23 0 41 19 41 42s-18 42-41 42h-84c-23 0-41-19-41-42s18-42 41-42z m-416-83h-84c-23 0-41-19-41-42s18-41 41-41h84c23 0 41 18 41 41s-18 42-41 42z m250 0h-84c-23 0-41-19-41-42s18-41 41-41h84c23 0 41 18 41 41s-18 42-41 42z m250 0h-84c-23 0-41-19-41-42s18-41 41-41h84c23 0 41 18 41 41s-18 42-41 42z m-500-167h-84c-23 0-41-18-41-41s18-42 41-42h84c23 0 41 19 41 42s-18 41-41 41z m250 0h-84c-23 0-41-18-41-41s18-42 41-42h84c23 0 41 19 41 42s-18 41-41 41z m250 0h-84c-23 0-41-18-41-41s18-42 41-42h84c23 0 41 19 41 42s-18 41-41 41z m-250-166h-84c-23 0-41-19-41-42s18-42 41-42h84c23 0 41 19 41 42s-18 42-41 42z" horiz-adv-x="1000" />

<glyph glyph-name="q-new-business" unicode="&#xe828;" d="M122 58h168v-46h-168v46z m412 610h-270v-47h270v47z m101-102h-513v-46h513v46z m343-37l-191-191v-366c0-48-39-87-87-87h-605c-48 0-87 39-87 87v756c0 48 39 87 87 87h605c48 0 87-39 87-87v-150l71 71c6 5 13 8 21 8 8 0 16-3 21-8l78-78c5-5 8-13 8-21 0-7-3-15-8-21z m-166 17l-324-324v-63h63l324 324-63 63z m-77-260l-167-167h-120v120l287 286v203c0 19-16 35-35 35h-605c-19 0-35-16-35-35v-756c0-19 16-35 35-35h605c19 0 35 16 35 35v314z m207 264l-63 63-33-33 63-63 33 33z" horiz-adv-x="1000" />

<glyph glyph-name="q-lightbulb" unicode="&#xe829;" d="M832 608c-48 96-141 168-248 192-113 24-228-2-316-73-88-71-138-177-138-289 0-118 69-241 174-314l0-31c0-14-1-37 17-55 18-18 44-21 63-21 1 0 1 0 2 0h229c27 0 49 8 63 23 20 20 19 46 19 59v26c140 97 227 298 135 483z m-198-425c-13-8-20-21-20-36v-47h-226v47c0 14-8 28-21 35-76 47-154 144-154 256 0 87 39 169 107 224 52 41 116 63 182 63 21 0 43-2 64-7 83-18 155-73 191-147 75-151-3-316-123-388z m54-250c0-23-19-41-42-41h-292c-23 0-41 18-41 41s18 42 41 42h292c23 0 42-19 42-42z" horiz-adv-x="1000" />

<glyph glyph-name="q-new-business-select" unicode="&#xe82a;" d="M120 58h168v-46h-168v46z m412 610h-270v-47h270v47z m101-102h-513v-46h513v46z m264-91l-112-112v-391c0-48-40-87-87-87h-605c-48 0-88 39-88 87v756c0 48 40 87 88 87h605c47 0 87-39 87-87v-183l21 21 91-91z m-164-165l-172-171h-91v91l262 263v235c0 19-16 35-35 35h-604c-20 0-35-16-35-35v-756c0-19 15-35 35-35h605c19 0 35 16 35 35v338z m233 247l-78 78c-1 1-4 2-6 2-3 0-5-1-7-2l-46-47 91-91 46 46c2 2 3 5 3 7 0 3-1 5-3 7z" horiz-adv-x="1000" />

<glyph glyph-name="q-lightning-bolt-fast" unicode="&#xe82b;" d="M125 579c0 23 19 42 42 42h208c23 0 42-19 42-42s-19-41-42-41h-208c-23 0-42 18-42 41z m188-229c0 23-19 42-42 42h-188c-23 0-41-19-41-42s18-42 41-42h188c23 0 42 19 42 42z m62-187h-229c-23 0-42-19-42-42s19-42 42-42h229c23 0 42 19 42 42s-19 42-42 42z m585 231c0-21-10-36-26-58l-275-385c-8-11-21-18-34-18-5 0-10 1-15 3-18 7-29 25-26 44l35 266h-158c-28 0-46 0-63 13-15 11-23 29-24 47-1 21 10 36 26 58l274 385c12 16 32 22 50 15 18-7 28-25 26-44l-36-266h159c27 0 45 0 62-13 15-11 24-28 25-47z m-103-23h-190c-12 0-24 5-32 14-8 9-11 21-10 33l20 147-168-236h190c12 0 23-5 31-14 8-9 12-21 10-33l-20-146 169 235z" horiz-adv-x="1000" />

<glyph glyph-name="q-resources-1" unicode="&#xe82c;" d="M502 493c-79 0-144-64-144-143s65-143 144-143c80 0 143 63 143 143 0 79-64 143-143 143z m77-143c0-42-35-77-77-77s-78 35-78 77 36 78 78 78 77-36 77-78z m323 109h-48c-5 0-5 1-5 2-4 21-12 42-21 57l-3 2c0 0 0 1 2 2l38 38c14 15 22 32 22 50s-8 36-22 51l-57 56c-29 22-77 22-100-1l-36-36-7 0c-12 3-27 8-40 14-5 2-9 4-13 6-1 1-2 3-4 3-2 1-2 2-2 3v48c0 39-31 71-71 71h-72c-39 0-71-32-71-71v-49c0-5-1-5-3-5-19-4-40-12-56-21l-1-1-1-1c0 0 0-1 0-1 0 1-1 2-1 2l-39 39c-30 22-78 22-100-1l-55-55c-15-15-23-32-23-51s8-35 23-50l37-36 0-7c-3-10-7-20-11-30-4-7-7-14-9-22-2-2-3-3-4-4-1-2-1-2-3-2h-48c-39 0-71-32-71-71v-73c0-39 32-70 71-70h48c5 0 5-1 5-3 4-20 12-41 22-57l2-2c0 0 0 0-2-2l-38-38c-14-14-22-32-22-50s8-36 22-50l56-56c30-23 78-22 100 0l37 36h7c20-10 43-19 62-26v-52c0-39 31-70 71-70h72c39 0 68 31 68 74v48c0 5 0 5 2 6 21 4 41 11 58 21l1 1 1 1c0 0 0 0 0 0 0 0 1-1 2-1l38-39c30-22 78-22 100 1l55 55c15 14 23 32 23 50s-8 36-23 51l-36 36 0 7c1 10 6 19 11 30 3 7 6 15 9 23 1 1 2 2 3 4 1 2 2 2 3 2h48c40 0 71 31 71 70v73c-1 39-33 71-72 71z m-109-197c-2-8-6-17-11-27-3-7-7-14-9-21-13-34-9-61 11-81l38-38 1-2c0 0 0-1-1-2l-57-56c0 0-1 0-2 1l-38 38c-20 20-48 24-81 11l-1 0c-10-7-20-11-32-15-5-2-11-3-15-5-28-7-49-36-49-68v-48c0-1-1-5-5-5h-71c-1 0-5 1-5 5v76c0 15-16 28-23 32l-2 1c-25 7-52 18-72 27-15 8-26 8-36 8-20 0-38-8-45-19l-40-39c0 0-1 0-2 1l-56 57c0 0 0 1 1 2l38 38c20 20 24 48 11 81l0 1c-7 9-11 20-15 32-2 5-3 10-5 15-7 28-36 48-67 48h-48c-1 0-5 2-5 5v73c0 1 1 5 5 5h48c30 0 56 19 67 49 3 8 7 17 12 27 3 6 6 14 9 21 12 33 8 61-12 81l-39 39c0 1 1 1 2 2l56 57c1-1 1-1 2-2l38-38c20-20 48-24 81-11l1 0c9 7 20 11 32 15 5 2 10 3 15 5 28 7 48 36 48 67v49c0 1 2 5 5 5h73c1 0 5-1 5-5v-49c0-29 19-55 49-67 8-2 17-6 27-11 6-3 14-7 21-9 29-12 59-8 81 11l40 40c0-1 1-1 2-1l56-57c0-1-1-1-1-2l-38-38c-20-20-25-48-12-81l1-1c6-9 10-20 14-31 2-5 3-11 5-15 7-29 36-49 67-49h49c1 0 5-1 5-5v-73c0-1-1-5-5-5h-49c-29-1-55-20-67-49z" horiz-adv-x="1000" />

<glyph glyph-name="q-list" unicode="&#xe82d;" d="M250 100c0-46-37-83-83-83s-84 37-84 83 38 83 84 83 83-37 83-83z m125 458h500c23 0 42 19 42 42s-19 42-42 42h-500c-23 0-42-19-42-42s19-42 42-42z m-208-125c-46 0-84-37-84-83 0-46 38-83 84-83s83 37 83 83c0 46-37 83-83 83z m0 250c-46 0-84-37-84-83s38-83 84-83 83 37 83 83-37 83-83 83z m708-541h-500c-23 0-42-19-42-42s19-42 42-42h500c23 0 42 19 42 42s-19 42-42 42z m0 250h-500c-23 0-42-19-42-42s19-42 42-42h500c23 0 42 19 42 42s-19 42-42 42z" horiz-adv-x="1000" />

<glyph glyph-name="q-microphone-on" unicode="&#xe82e;" d="M500 183c92 0 167 75 167 167v292c0 92-75 166-167 166-92 0-167-74-167-166v-292c0-92 75-167 167-167z m-83 459c0 46 37 83 83 83 46 0 83-37 83-83v-292c0-46-37-83-83-83-46 0-83 37-83 83v292z m416-209v-83c0-170-127-310-291-331v-44h125c23 0 41-19 41-42s-18-41-41-41h-334c-23 0-41 18-41 41s18 42 41 42h125v44c-164 21-291 161-291 331v83c0 23 18 42 41 42s42-19 42-42v-83c0-138 112-250 250-250s250 112 250 250v83c0 23 19 42 42 42s41-19 41-42z" horiz-adv-x="1000" />

<glyph glyph-name="q-phone-call-end" unicode="&#xe82f;" d="M655 171c16-16 16-42 0-59l-125-125c-4-4-9-7-14-9-5-2-10-3-16-3 0 0 0 0 0 0s0 0 0 0c-6 0-11 1-16 3-5 2-9 5-13 9l-125 125c-17 17-17 43 0 59s42 16 59 0l53-54v233c0 23 19 42 42 42s42-19 42-42v-233l54 54c16 16 42 16 59 0z m303 291v-8c0-21 0-33-2-45-10-50-48-88-98-98-12-3-24-3-45-3h-10c-12 0-18 1-23 1-59 6-106 53-112 112-1 5-1 11-1 23 0 0-1 3-1 3-106 37-225 37-332 0-1-15-1-21-2-26-5-59-53-106-112-112-5 0-11-1-22-1h-11c-21 0-32 0-44 3-50 10-89 48-99 98-2 12-2 24-2 45v8c0 21 0 34 3 49 6 35 30 75 57 98 12 10 20 14 33 21 222 124 508 124 730 0 13-7 21-11 33-21 28-23 51-63 58-98 2-15 2-28 2-49z m-83 0c0 19 0 27-1 34-3 15-17 38-29 49-6 4-9 6-21 13-98 55-210 84-324 84s-226-29-324-84c-12-7-15-9-21-13-12-11-26-34-29-49-1-7-1-15-1-34v-8c0-15 0-25 1-29 3-16 16-29 33-33 4 0 13 0 28 0h11c7 0 11 0 14 0 20 2 36 18 37 37 1 4 1 7 1 15 0 4 0 6 0 9 2 30 22 58 49 70 3 1 5 1 8 3 124 43 262 43 386 0 4-2 5-2 8-3 27-12 47-40 49-70 0-3 0-5 0-9 0-8 0-11 1-15 2-19 17-35 37-37 3 0 7 0 15 0h10c15 0 24 0 28 1 17 3 30 16 33 32 1 4 1 14 1 29v8z" horiz-adv-x="1000" />

<glyph glyph-name="q-pause-circle" unicode="&#xe830;" d="M438 475v-250c0-23-19-42-42-42s-42 19-42 42v250c0 23 19 42 42 42s42-19 42-42z m166 42c-23 0-41-19-41-42v-250c0-23 18-42 41-42s42 19 42 42v250c0 23-19 42-42 42z m354-167c0-253-205-458-458-458s-458 205-458 458 205 458 458 458 458-205 458-458z m-83 0c0 207-168 375-375 375-207 0-375-168-375-375 0-207 168-375 375-375 207 0 375 168 375 375z" horiz-adv-x="1000" />

<glyph glyph-name="q-stats" unicode="&#xe831;" d="M953-61h-93v321c0 18-11 29-29 29h-118c-18 0-30-11-30-29v-321h-88v141c0 18-11 29-30 29h-117c-19 0-30-11-30-29v-141h-88v237c0 17-11 28-29 28h-118c-18 0-30-10-30-28v-237h-67v266l192 142 210-127 2-1c15-4 31-5 45 9l389 368c7 7 11 17 11 27 0 10-4 19-11 26-14 14-39 14-53 1l-369-345-209 127c-18 9-33 9-47-1l-160-118v446c0 24-15 39-38 39-24 0-39-15-39-39v-859c0-23 15-39 39-39h904c23 0 39 15 39 39s-15 39-38 39z m-210 293h58v-293h-58v293z m-265-180h58v-113h-58v113z m-265 96h58v-209h-58v209z" horiz-adv-x="1000" />

<glyph glyph-name="q-microphone-off" unicode="&#xe832;" d="M351 716c28 57 85 92 149 92 92 0 167-74 167-166v-184c0-23-19-41-42-41s-42 18-42 41v184c0 46-37 83-83 83-32 0-60-18-75-46-10-21-35-29-56-19-20 10-28 35-18 56z m595-812c-8-8-19-12-29-12s-22 4-30 12l-183 183c-46-36-102-60-162-68v-44h125c23 0 41-19 41-42s-18-41-41-41h-334c-23 0-41 18-41 41s18 42 41 42h125v44c-164 21-291 161-291 331v83c0 23 18 42 41 42s42-19 42-42v-83c0-138 112-250 250-250 54 0 104 17 145 46l-60 60c-26-15-55-23-85-23-92 0-167 75-167 167v108l-279 279c-16 17-16 43 0 59s43 16 59 0l505-505c1 0 1-1 2-2l84-84c29 41 46 91 46 145v83c0 23 19 42 42 42s41-19 41-42v-83c0-77-26-148-70-204l183-183c16-17 16-43 0-59z m-424 366l-105 104v-24c0-46 37-83 83-83 7 0 15 1 22 3z" horiz-adv-x="1000" />

<glyph glyph-name="q-training-select" unicode="&#xe833;" d="M508 248c-7 0-13 1-19 4l-309 129 0-224c0-39 28-72 65-79l230-42c8-1 16-2 24-2 8 0 16 1 24 2l230 42c38 7 65 40 65 79l1 218-294-123c-5-3-11-4-17-4z m449 339l0 0-427 180c-10 4-20 6-30 6-11 0-22-2-31-6l-427-180v0c-20-8-33-27-33-49 0-21 13-41 33-49l35-15 21-9v-365c-20-38-33-119-33-158h106c0 39-13 120-32 158v348l368-150c1-1 2-1 3 0l425 182 0 0 22 9c19 9 32 28 32 49 1 22-12 41-32 49z" horiz-adv-x="1000" />

<glyph glyph-name="q-benefits-select" unicode="&#xe834;" d="M423-150l0 0c-111 50-227 115-304 250-73 127-111 312-111 581 77 0 154 15 227 46 69 27 134 65 188 119 54-50 119-92 189-119 73-31 150-46 227-46 0-266-39-450-112-581-46-81-112-162-304-250l0 0z m-115 654l0 0c-66 0-119-54-119-119 0-58 34-120 103-185 43-38 85-77 135-108 46 31 92 66 135 108 69 69 103 131 103 185 0 65-53 119-119 119-42 0-84-23-107-58-4-4-4-7-8-7s-4 3-8 7c-31 35-73 58-115 58l0 0z m96-289c-8 0-15 4-23 8l-62 62c-7 7-7 19 0 27 8 7 20 7 27 0l58-58 146 165c8 8 19 8 27 0 8-7 8-19 0-27l-150-169 0 0c-4-4-15-8-23-8z" horiz-adv-x="846" />

<glyph glyph-name="q-map-trifold" unicode="&#xe835;" d="M979 803c-13 7-28 7-41 0l-273-156-312 157c-3 1-7 2-10 3-4 1-7 1-11 1-3 0-6 0-9-1-4-1-8-3-11-4l-291-167c-13-7-21-21-21-36v-667c0-15 8-28 21-36 13-7 28-7 41 0l273 156 312-157c3-1 7-2 10-3 3-1 6-1 10-1 0 0 1 0 1 0 3 0 6 0 9 1 4 1 8 2 11 4l291 167c13 7 21 21 21 36v667c0 15-8 28-21 36z m-687-679l-209-119v571l209 119v-571z m333-123l-250 125v573l250-125v-573z m292 123l-209-119v571l209 119v-571z" horiz-adv-x="1000" />

<glyph glyph-name="q-agency-select" unicode="&#xe836;" d="M843-73v812c0 49-40 89-88 89h-488c-49 0-89-40-89-89v-812h-86v-50h86 665 85v50h-85z m-521 797h130v-136h-130v136z m0-196h130v-137h-130v137z m0-198h130v-136h-130v136z m255-403h-130v216h130v-216z m122 267h-130v136h130v-136z m0 196h-130v138h130v-138z m0 198h-130v136h130v-136z" horiz-adv-x="1000" />

<glyph glyph-name="q-pause" unicode="&#xe837;" d="M750 725h-167c-23 0-41-19-41-42v-666c0-23 18-42 41-42h167c23 0 42 19 42 42v666c0 23-19 42-42 42z m-42-667h-83v584h83v-584z m-291 667h-167c-23 0-42-19-42-42v-666c0-23 19-42 42-42h167c23 0 41 19 41 42v666c0 23-18 42-41 42z m-42-667h-83v584h83v-584z" horiz-adv-x="1000" />

<glyph glyph-name="q-travel" unicode="&#xe838;" d="M881 578c38 41 67 90 82 142 9 26 7 52-8 76-20 31-62 45-98 32-55-21-104-55-144-98l-123-134-96 24c3 7 4 15 4 23-1 17-8 32-20 43-26 23-68 21-92-6l-25-27-39 10c2 7 3 14 3 22-1 17-8 32-20 43-26 23-67 20-92-6l-24-27-42 11c-15 4-31-1-42-12l-48-52c-9-11-13-25-10-38 3-14 13-25 26-30l362-145-95-102-48-78-182 37c-12 2-25-2-33-11l-36-38c-7-8-10-19-9-29 1-10 7-20 16-25l149-96c-4-22 2-45 20-61 12-11 28-17 45-17 6 0 11 1 17 3l109-139c7-8 17-13 27-13 0 0 1 0 1 0 10 0 20 4 27 11l35 39c9 9 12 22 8 34l-53 175 72 53 97 105 177-346c6-12 19-21 32-23 2 0 4 0 6 0 12 0 23 5 31 14l48 51c11 12 14 28 9 43l-22 64 20 19c14 12 22 29 23 47 1 17-5 32-16 44-18 20-47 25-71 15l-12 35 24 22c14 12 22 30 23 47 1 17-5 33-16 45-19 20-50 24-75 13l-27 76 125 135z m-464 73c9 10 24 12 33 4 4-3 6-8 6-14 0-3-1-8-3-11l-46 11 10 10z m-173 42c9 10 24 12 33 4 4-3 6-8 6-14 0-3 0-7-2-10l-46 11 9 9z m-135-75l31 34 408-102-73-79-366 147z m1-387l151-31-40-65-125 81 14 15z m321-292l-14-15-92 116 62 46 44-147z m40 276l-202-149c-3-2-11-3-16 1-5 4-5 10 0 17l129 207 372 402c34 37 76 66 123 84 12 5 27-1 33-9 5-10 6-20 2-31-14-45-38-88-71-123l-370-399z m409-52c4-5 5-10 5-14-1-7-4-14-9-18l-8-7-15 43c10 4 20 3 27-4z m-52 162c4-5 5-10 5-14-1-6-4-13-9-18l-11-10-15 44c9 6 22 6 30-2z m24-319l-32-35-178 348 73 79 137-392z" horiz-adv-x="1000" />

<glyph glyph-name="q-phone-call-outgoing" unicode="&#xe839;" d="M977 786v-250c0-23-19-42-42-42s-41 19-41 42v149l-221-220c-8-8-19-12-29-12s-22 4-30 12c-16 16-16 43 0 59l221 220h-150c-23 0-41 19-41 42s18 42 41 42h250c6 0 11-1 16-4 10-4 18-12 23-22 2-5 3-11 3-16z m-71-580c19-24 30-53 29-84v-124c0-18-3-35-10-51-7-16-17-30-30-42s-28-21-45-26c-13-5-26-7-40-7-3 0-7 0-11 1-135 14-265 61-379 134-104 67-195 158-262 263-73 113-120 245-134 379-2 18 0 35 6 52 5 16 14 31 26 44 12 13 26 23 42 30s33 11 50 11h125c30 0 59-10 82-30 23-20 38-47 43-77 5-38 14-74 27-109 8-22 10-46 5-70-5-23-17-45-33-62l-31-30c49-76 115-142 192-191l29 30c18 17 39 29 62 34 24 5 48 3 70-5 35-13 71-23 108-27 31-5 59-20 79-43z m-54-82c0 10-3 20-10 28-7 8-16 13-26 14-43 6-85 16-126 31-7 3-15 4-23 2-8-1-15-5-21-11l-53-53c-13-13-33-16-50-6-110 63-202 154-265 265-10 17-7 37 7 50l52 53c6 6 10 13 11 21 2 7 1 16-1 23-16 41-26 83-32 126-1 10-6 19-14 26-7 6-17 10-27 10 0 0 0 0 0 0h-126c-6 0-11-1-17-4-5-2-10-6-14-10-3-4-6-9-8-15-2-5-3-11-2-17 13-121 55-239 121-342 61-95 143-177 237-238 103-66 221-108 342-121 5-1 11 0 16 2 6 2 11 5 15 9 5 4 8 8 10 14 3 5 4 11 4 16v126c0 0 0 0 0 1z" horiz-adv-x="1000" />

<glyph glyph-name="q-onboarding" unicode="&#xe83a;" d="M900 451c13 22 21 48 21 76 0 75-56 136-124 136s-125-61-125-136c0-28 8-54 21-76-20-8-38-21-52-38 2 10 3 21 3 32 0 89-64 162-143 162s-144-73-144-162c0-12 1-23 3-34-14 18-32 32-52 39 13 23 21 48 21 77 0 75-56 136-125 136s-124-61-124-136c0-28 8-54 21-76-50-19-86-71-86-133v-92c0-15 13-27 28-27s27 12 27 27v92c0 47 32 87 71 87h8c17-10 36-15 55-15s39 5 55 15h8c39 0 71-40 71-87v-3c-38-27-63-71-63-120v-122c0-15 12-28 27-28s27 13 27 28v122c0 51 42 93 94 93h45c10-3 21-5 33-5s22 2 33 5h44c52 0 95-42 95-93v-122c0-15 12-28 27-28s27 13 27 28v122c0 50-26 93-64 120v3c0 47 32 87 71 87h8c17-10 36-15 55-15s38 5 55 15h8c39 0 71-40 71-87v-92c0-15 12-27 27-27s27 12 27 27v92c0 62-36 114-85 133z m-766 76c0 45 31 82 70 82s71-37 71-82-32-83-71-83-70 37-70 83z m256-184c0-1 2-3 3-4-1 0-2-1-3-1 0 2 0 3 0 5z m21 102c0 59 40 107 89 107s90-48 90-107-40-108-90-108-89 48-89 108z m197-106c1 1 2 2 2 3 0-2 0-3 0-4-1 0-1 1-2 1z m118 188c0 45 32 82 70 82s71-37 71-82-32-83-71-83-70 37-70 83z" horiz-adv-x="1000" />

<glyph glyph-name="q-save" unicode="&#xe83b;" d="M913 511c-3 13-8 25-15 36-7 13-17 22-33 38l-130 130c-15 16-25 25-37 33-12 7-24 12-37 15-14 4-27 4-49 4h-287c-11 0-21 0-31 0-2 0-3 0-5 0-54-1-85-3-115-18-31-17-56-42-72-73-19-36-19-74-19-151v-350c0-76 0-115 19-151 16-31 41-56 72-73 30-15 61-17 115-18 1 0 2 0 3 0 10 0 21 0 33 0h350c12 0 23 0 33 0 1 0 2 0 3 0 54 1 85 3 115 18 31 17 56 42 73 73 18 36 18 75 18 151v286c0 23 0 36-4 50z m-580 172h279c15 0 25 0 30-1 4-1 8-2 12-5 3-1 7-5 13-11v-83c0-11 0-23 2-24-4-1-16-1-27-1h-284c-11 0-23 0-24-2-1 4-1 16-1 27v100z m334-666h-334v225c0 11 0 23-2 24 4 1 16 1 27 1h284c11 0 23 0 24 2 1-4 1-16 1-27v-225z m166 158c0-61 0-95-9-113-8-16-20-28-36-36-9-5-21-7-38-8v224c0 27 0 45-9 63-8 15-21 28-36 36-18 9-36 9-63 9h-284c-27 0-45 0-62-9-16-8-29-21-37-36-9-18-9-36-9-63v-224c-17 1-29 3-38 8-16 8-28 20-36 36-9 18-9 52-9 113v350c0 61 0 95 9 113 8 16 20 28 36 36 9 5 21 7 38 8v-99c0-27 0-45 9-63 8-15 21-28 37-36 17-9 35-9 62-9h284c27 0 45 0 63 9 15 8 28 21 36 36 9 18 9 36 9 63l57-57c11-11 18-18 20-22 3-4 4-8 5-12 1-5 1-15 1-31v-286z" horiz-adv-x="1000" />

<glyph glyph-name="q-rx-select" unicode="&#xe83c;" d="M856 378h-20-72-24l-128-164-120 152c88 32 140 100 140 200 0 136-100 220-260 220h-240v-640h68v204h172c8 0 12 0 16 0l164-212-184-236h24 72 24l124 160 124-160h4 76 40l-184 236 184 240z m-656 348h168c128 0 196-60 196-160 4-100-64-160-192-160h-172v320z" horiz-adv-x="1000" />

<glyph glyph-name="q-everplans" unicode="&#xe83d;" d="M527 148v69c0 15-12 27-27 27s-27-12-27-27v-69c-19-10-32-29-32-52 0-32 27-58 59-58 33 0 59 26 59 58 0 23-13 43-32 52z m345 305h-107v113c0 143-117 259-261 259h-8c-144 0-261-116-261-259v-113h-107c-40 0-73-33-73-74v-438c0-40 33-73 73-73h744c41 0 73 33 73 73v438c0 41-32 74-73 74z m-583 113c0 113 93 205 207 205h8c114 0 207-92 207-205v-113h-422v113z m602-625c0-11-8-19-19-19h-744c-11 0-19 9-19 19v438c0 11 9 19 19 19h744c11 0 19-9 19-19v-438z" horiz-adv-x="1000" />

<glyph glyph-name="q-oc" unicode="&#xe83e;" d="M874 785h-769c-59 0-109-51-109-112v-510c0-61 50-113 109-113h291l-45-126h-53c-15 0-28-12-28-27s13-27 28-27h378c15 0 27 12 27 27s-12 27-27 27h-47l-45 126h290c59 0 109 52 109 113v510c0 61-50 112-109 112z m-303-861h-162l45 126h73l44-126z m358 239c0-31-26-58-55-58h-769c-29 0-55 27-55 58v510c0 31 26 58 55 58h769c30 0 56-27 56-58v-510z m-106-8h-666c-34 0-63 29-63 63v408c0 35 29 63 63 63h666c34 0 62-28 62-63v-407c0-35-28-64-62-64z m-666 480c-5 0-9-4-9-9v-407c0-5 4-9 9-9h666c5 0 8 4 8 9v407c0 5-3 9-8 9h-666z m211-256h-100c-23 0-41 19-41 41v109c0 22 18 41 41 41h100c22 0 41-18 41-41v-109c0-22-19-41-41-41z m-87 54h74v82h-74v-82z m439-147h-466c-15 0-27 12-27 27s12 27 27 27h465c15 0 27-12 27-27s-11-27-26-27z m4 109h-221c-15 0-27 13-27 28s12 27 27 27h221c15 0 27-12 27-27s-12-28-27-28z m0 110h-221c-15 0-27 12-27 27s12 27 27 27h221c15 0 27-12 27-27s-12-27-27-27z" horiz-adv-x="1000" />

<glyph glyph-name="q-video-off" unicode="&#xe83f;" d="M113 796c-16 16-43 16-59 0s-16-42 0-59l74-74c-51-29-86-83-86-146v-334c0-92 74-166 166-166h375c52 0 99 23 130 61l174-174c8-8 19-12 30-12s21 4 29 12c16 16 16 42 0 59l-833 833z m470-696h-375c-46 0-83 37-83 83v334c0 40 29 74 68 82l460-461c-15-23-41-38-70-38z m360 449c-12 15-33 23-52 21-23-1-37-16-61-39l-80-80c0 70-1 107-18 141-16 32-41 57-73 73-36 18-74 18-151 18h-112c-23 0-42-18-42-41s19-42 42-42h112c62 0 95 0 113-9 16-8 29-21 37-36 9-18 9-52 9-113v-92c0 0 0 0 0 0 0-11 4-21 11-28v0c0 0 0 0 0 0 0-1 0-1 1-1l151-152c24-23 38-38 61-39 2 0 3 0 5 0 18 0 36 8 47 21 15 18 15 38 15 71v256c0 33 0 53-15 71z m-68-307l-108 108 108 108v-216z" horiz-adv-x="1000" />

<glyph glyph-name="myquility" unicode="&#xe840;" d="M471 568l-59 13-32 52 0 0c-6 12-18 18-31 18s-25-7-31-18l-31-52-60-13 0 0c-12-3-23-13-27-25-4-13-1-26 7-36l40-45-5-61c-1-12 4-26 14-33s24-10 37-4l56 24 56-24c12-6 26-4 37 4s16 20 15 33l-5 61 40 45c8 10 11 24 7 36-5 13-15 23-28 25l0 0z m-48-83c-6-7-9-17-9-27l5-60-56 24c-10 4-20 4-30 0l-56-24 5 60c1 11-2 20-9 27l-40 46 60 14 0 0c9 2 17 8 23 17l31 52 31-52c5-9 14-15 23-17l59-14-37-46z m273 16c0 124-65 238-172 300-106 63-239 65-346 4-107-59-175-172-178-296s60-239 166-304l-132-294c-3-6-1-13 4-17 4-6 11-7 17-4l122 44 58-74 0 0c4-4 9-6 13-6 1 0 2 0 2 0 6 1 10 5 13 11l84 210 84-210c2-6 8-10 13-11 1 0 2 0 2 0 5 0 9 2 12 6l59 74 121-46 0 0c6-2 13-1 17 5s7 12 3 17l-128 296c103 63 166 175 166 295l0 0z m-452-597l-49 61 0 0c-4 5-13 7-19 5l-96-36 114 256 0 0c47-23 97-36 149-37l-11-27-88-222z m371 30l-96 36 0 0c-6 2-15 0-19-5l-49-61-85 217 13 34 0 0c43 4 84 16 122 35l114-256z m-267 253c-83 0-164 33-223 92s-93 140-93 223 34 164 93 223 140 93 223 93 164-34 223-93 93-140 93-223-34-163-93-223-140-92-223-92l0 0z m0 596c-75 0-147-29-199-82-53-53-82-125-82-199s29-147 82-199c53-53 125-82 199-82s147 29 199 82c53 53 82 125 82 199 0 75-30 146-82 199-53 52-124 82-199 82l0 0z m0-530c-66 0-129 26-176 73s-73 109-73 176 26 129 73 176 109 73 176 73c66 0 129-26 176-73s73-109 73-176c0-65-26-129-73-176s-110-73-176-73l0 0z" horiz-adv-x="698" />

<glyph glyph-name="q-v-assistant" unicode="&#xe841;" d="M272-138h-159c-21 0-38 18-38 38v425c0 21 17 38 38 38h159c21 0 38-17 38-38v-425c0-21-17-38-38-38z m-143 54h127v393h-127v-393z m446-54h-159c-21 0-38 18-38 38v515c0 21 17 38 38 38h159c21 0 38-17 38-38v-514c0-22-17-39-38-39z m-143 54h127v483h-127v-483z m446-54h-159c-21 0-38 18-38 38v606c0 21 17 38 38 38h159c21 0 38-17 38-38v-605c0-22-17-39-38-39z m-143 54h127v574h-127v-574z m205 868c-3 9-10 15-19 17l-151 36c-15 4-29-5-32-20-4-14 5-29 20-32l60-15-740-229c-15-5-23-20-18-34 3-12 14-19 25-19 3 0 6 0 8 1l747 232-42-56c-8-12-6-30 6-38 5-4 10-6 16-6 8 0 16 4 22 11l94 127c6 7 7 16 4 25z" horiz-adv-x="1000" />

<glyph glyph-name="quility-u" unicode="&#xe842;" d="M682 465c-15 0-27-12-27-27v-140c0-30-25-54-56-54s-55 24-55 54v140c0 15-12 27-27 27s-27-12-27-27v-140c0-60 49-108 109-108s110 48 110 108v140c0 15-13 27-27 27z m130 368h-536c-55 0-100-45-100-100v-126h-42c-15 0-27-12-27-27s12-27 27-27h42v-96h-42c-15 0-27-12-27-27s12-27 27-27h42v-97h-42c-15 0-27-12-27-27s12-27 27-27h42v-96h-42c-15 0-27-12-27-27s12-27 27-27h42v-126c0-55 45-100 100-100h537c55 0 100 45 100 100v757c-1 55-45 100-101 100z m-582-857v126h41c15 0 27 12 27 27s-12 27-27 27h-41v96h41c15 0 27 12 27 27s-12 27-27 27h-41v97h41c15 0 27 12 27 27s-12 27-27 27h-41v96h41c15 0 27 12 27 27s-12 27-27 27h-41v126c0 25 21 45 46 45h39v-848h-39c-25 0-46 21-46 46z m628 0c0-25-20-46-46-46h-444v848h444c26 0 46-20 46-45v-757z" horiz-adv-x="1000" />

<glyph glyph-name="q-agency-building" unicode="&#xe843;" d="M241 64c-8 8-21 8-29 0l-34-34c-8-7-8-21 0-29l7-6c4-5 9-7 15-7 5 0 10 2 15 7l33 33c4 4 6 9 6 15 0 6-2 11-6 15l-7 6z m516 282c61 0 119 24 162 67 64 64 84 160 52 245-2 5-8 10-14 11s-12 0-17-5l-129-129c-26-26-68-26-94 0s-26 68 0 94l129 129c4 5 6 11 5 17-1 7-6 12-12 14-84 33-180 12-244-51-43-44-67-101-67-163 0-36 9-71 25-102l-36-35c-12 1-23-1-34-6l-159 160-47 107-142 74-80-82 73-141 107-47 158-158-283-283c-29-29-29-75 0-104l30-30c14-14 33-21 52-21s38 7 52 21l254 255 242-242c20-20 47-30 73-30s53 10 73 30c40 40 40 105 0 145l-258 259 26 26c32-16 66-25 103-25z m-498 187l-104 46-55 105 43 43 105-55 43-98 164-166-35-36-161 161z m-41-578c-15-14-38-14-52 0l-29 30c-14 14-14 37 0 51l359 359c8 8 20 8 28 0l51-50c9-9 9-24 0-33l-357-357z m642 12c-26-25-67-25-93 0l-242 242 76 76c6 6 10 13 13 20l246-246c25-25 25-67 0-92z m-216 437l0 0-14-13-4-3 0 0-20-21-58 58 21 20 0 0 1 2 17 16-1 0 9 10c-19 31-30 66-30 102 0 52 20 100 57 136 36 36 85 56 135 56 13 0 26-2 40-4l-107-108c-41-40-41-106 0-147s106-40 147 0l107 107c13-62-6-129-52-175-36-36-84-56-135-56-37 0-72 11-103 30l-10-10z" horiz-adv-x="1000" />

<glyph glyph-name="q-agency-building-select" unicode="&#xe844;" d="M886 86l-228 229-10-10c1-17-4-35-17-49l-103-103 213-213c20-20 47-30 73-30s53 10 73 30c39 41 39 106-1 146z m82 568c-3 6-8 10-14 11-6 2-13 0-17-5l-129-129c-26-26-69-26-95 0s-25 69 0 94l130 130c4 4 6 10 5 17-2 6-6 11-12 13-85 33-181 13-244-51-44-44-67-101-67-162 0-37 8-72 24-103l-35-35c-10 1-20 0-29-4l-161 162-47 107-142 74-80-82 73-141 107-47 158-158-286-286c-29-29-29-75 0-104l30-30c14-14 33-21 52-21 19 0 38 7 52 21l357 358c14 13 19 31 17 49l36 36c31-16 66-25 102-25 62 0 119 24 162 67 65 64 85 160 53 244z m-720-626l-33-33c-5-5-10-7-15-7s-11 2-15 7l-7 6c-8 8-8 22 0 29l34 34c8 8 21 8 29 0l7-6c4-4 6-9 6-15s-2-11-6-15z m172 344l-161 161-104 46-55 105 43 43 105-55 43-98 164-166-35-36z m470 64c-37-36-85-56-136-56-37 0-72 11-102 30l-49-47-57 58 47 49c-20 30-30 65-30 102 0 51 20 99 56 135s85 56 135 56c13 0 26-1 40-4l-107-107c-41-41-41-107 0-147 40-41 106-41 147 0l107 107c14-63-6-129-51-176z" horiz-adv-x="1000" />

<glyph glyph-name="q-play-circle" unicode="&#xe845;" d="M500 808c-253 0-458-205-458-458s205-458 458-458 458 205 458 458-205 458-458 458z m0-833c-207 0-375 168-375 375 0 207 168 375 375 375 207 0 375-168 375-375 0-207-168-375-375-375z m166 438l-196 127c-22 13-37 23-58 22-18-2-34-11-45-25-13-17-13-35-13-61v-252c0-26 0-44 13-61 10-14 27-23 45-25 2 0 3 0 4 0 19 0 34 10 54 23l196 126c19 12 33 21 41 39 6 15 6 33 0 49-8 17-22 26-41 38z m-228-174v222l172-111-172-111z" horiz-adv-x="1000" />

<glyph glyph-name="q-anu-icon" unicode="&#xe846;" d="M387 445h-185l-32-85h-167l214 490h161l214-490h-170l-35 85z m-44 121l-47 123-50-123h97z m774 284v-490h-135l-184 223v-223h-162v490h135l185-223v223h161z m297-498c-65-3-127 17-176 61-44 47-68 109-62 170v267h164v-264c-3-26 6-56 21-79 14-18 35-26 55-24 21 0 42 9 56 24 15 23 21 50 21 79v264h161v-270c3-64-18-126-62-170-52-41-114-64-178-58l0 0z m-1276-502c-24 0-50 6-71 18-20 11-38 26-49 46-12 21-18 44-18 68 0 23 6 47 18 67 11 21 29 36 49 47 24 15 47 21 74 21 20 0 41-3 61-12 18-9 33-20 44-32l-41-38c-14 20-38 29-64 29-15 0-30-3-44-12-12-5-24-17-30-29-2-12-8-23-8-41 0-15 3-29 11-41 6-12 18-24 30-29 11-6 26-12 44-12 26 0 50 12 64 29l38-35c-11-15-26-26-44-35-23-6-44-9-64-9z m328 103c0 0 0-6 0-15h-149c3-12 9-24 20-29 12-9 24-12 38-12 9 0 18 0 27 6 9 3 14 9 23 14l30-32c-21-23-50-35-83-32-20 0-41 3-58 12-18 8-29 20-38 35-9 14-15 35-15 53 0 17 6 35 15 52 9 15 23 30 38 36 17 8 35 14 53 11 17 0 35-3 52-11 15-9 30-21 39-36 5-14 8-32 8-52z m-102 58c-12 0-24-3-33-11-8-9-14-18-14-30h97c-3 12-6 24-15 30-12 8-24 11-35 11l0 0z m196 15c6 9 18 18 27 21 11 5 26 8 41 5v-52c-6 0-12 0-12 0-15 0-29-3-38-15-9-12-15-27-15-41v-94h-59v197h56v-21z m235-161c-6-6-15-9-21-9-9-3-17-3-23-3-21 0-38 6-56 17-15 15-20 33-20 53v82h-30v44h30v47h58v-47h50v-44h-50v-79c0-6 3-14 6-20 6-6 12-6 18-6 8 0 17 3 23 6l15-41z m32 187h59v-196h-59v196z m29 27c-8 0-17 3-26 9-6 5-9 14-9 23 0 9 3 18 9 24 6 5 18 8 26 8 9 0 18-3 27-8 6-6 9-15 9-24 0-9-3-18-9-23-6-6-18-9-27-9l0 0z m144-32h50v-44h-50v-150h-59v150h-29v44h29v8c0 21 6 38 21 53 15 15 35 21 56 21 8 0 17 0 23-3 6-3 15-3 21-9l-15-41c-6 6-15 6-23 6-18 0-27-9-27-30l3-5z m109 5h58v-196h-56l-2 196z m29 27c-9 0-18 3-27 9-5 5-8 14-8 23 0 9 3 18 8 24 6 5 18 8 27 8 9 0 17-3 26-8 6-6 9-15 9-24 0-9-3-18-9-23-6-6-17-9-26-9l0 0z m276-126c0 0 0-6 0-15h-150c3-12 9-24 18-29 11-9 23-12 38-12 8 0 17 0 26 6 9 3 15 9 24 14l29-32c-21-23-50-35-82-32-21 0-41 3-59 12-17 8-29 20-38 35-9 14-15 35-15 53 0 17 6 35 15 52 9 15 23 30 38 36 18 8 35 14 53 11 17 0 35-3 53-11 14-9 29-21 38-36 6-14 12-32 12-52z m-103 58c-12 0-24-3-32-11-9-9-15-18-15-30h97c-3 12-6 24-15 30-12 8-23 11-35 11l0 0z m340 115v-273h-56v23c-14-17-38-26-61-26-18 0-35 3-50 12-15 8-26 20-35 35-9 17-15 35-12 53 0 17 3 38 12 53 9 14 20 26 35 35 15 9 32 11 50 11 23 0 44-8 58-23v97h59z m-105-226c14 0 26 6 35 14 8 12 14 27 14 42 0 14-6 29-14 41-9 8-24 14-35 14-15 0-27-6-36-14-8-12-14-27-14-41 0-15 6-30 14-42 9-11 21-14 36-14z" horiz-adv-x="1651" />

<glyph glyph-name="q-volume-1" unicode="&#xe847;" d="M750 350c0-66-26-130-73-177-8-8-19-12-29-12s-22 4-30 12c-16 17-16 43 0 59 31 31 49 74 49 118 0 45-17 87-49 118-16 16-16 43 0 59s43 16 59 0c47-47 73-110 73-177z m-250 292v-584c0-16-9-30-24-37-5-3-11-4-18-4-9 0-18 3-26 9l-197 157h-152c-23 0-41 19-41 42v250c0 23 18 42 41 42h152l197 157c13 10 30 12 44 5 15-7 24-21 24-37z m-83-87l-141-112c-7-6-16-10-26-10h-125v-166h125c10 0 19-3 26-9l141-113v410z" horiz-adv-x="1000" />

<glyph glyph-name="q-contests-select" unicode="&#xe848;" d="M810 479c-9 12-22 29-22 38 0 8 9 23 17 36 14 22 30 49 18 73-12 27-42 37-69 45-11 4-28 8-31 11-4 6-6 24-7 38-2 26-4 55-27 71-24 15-52 7-76-1-15-5-32-10-40-8-6 1-18 16-26 25-17 21-37 43-64 43-31 0-50-27-65-50-8-10-17-25-23-27-6-3-24 2-35 5-25 7-57 15-82-6-18-19-18-47-17-73 1-15 1-33-2-39-4-5-22-12-33-17-26-10-55-21-63-52-4-26 14-48 30-69 7-9 20-24 20-30 0-9-10-24-18-36-14-23-30-49-18-74 12-27 42-37 69-44 12-4 28-9 31-12 4-6 6-24 7-37 2-26 4-56 27-71 7-5 14-7 21-8l-60-292c-2-10 2-21 11-26s20-5 28 1l81 61 48-91c5-8 13-13 23-13 1 0 2 0 4 0 10 2 18 10 20 21l30 175 42-169c3-10 11-17 22-18 11-2 21 5 25 14l43 95 88-56c9-5 20-5 28 2 9 6 12 17 9 27l-86 282c11 1 22 4 32 12 23 20 23 51 23 76 0 12 0 29 3 34 4 5 22 12 32 16 26 10 55 22 63 49 1 3 1 5 1 7 0 23-16 43-32 62z m-360-528l-28 52c-4 7-10 11-17 13-7 2-15 0-20-5l-52-39 51 245c1 1 2 1 3 1 15 5 31 10 39 8 7-2 19-16 27-26 10-11 21-23 34-32l-37-217z m201 74c-6 4-13 5-21 3-7-2-12-7-15-13l-25-55-50 204c18 9 32 28 43 44 7 11 17 25 23 27 4 3 16 0 27-2l74-243-56 35z m109 382c-21-8-44-17-55-35-12-17-12-40-12-62 0-12 0-33-5-37-4-3-25 2-35 5-21 5-45 12-67 3-19-8-32-27-44-45-7-9-19-28-25-28-5 1-19 16-26 25-15 17-30 35-52 40-5 2-11 2-16 2-18 0-35-5-51-10-11-3-29-9-33-7-3 4-5 22-6 34-1 22-3 48-20 67-13 14-33 20-53 26-12 3-35 10-37 15 0 5 9 20 15 29 11 19 25 40 25 63s-16 42-31 61c-7 9-20 25-21 27 3 5 23 13 33 17 21 8 44 17 57 37 11 20 11 45 10 67 0 11-1 31 1 34 4 3 25-2 35-5 21-5 46-12 67-3 19 8 32 27 44 45 7 9 20 28 25 28 5-1 19-17 26-25 15-17 30-35 52-41 22-5 46 2 67 9 10 3 29 9 33 8 4-4 5-23 6-34 2-22 3-48 20-67 13-14 33-20 53-26 12-4 35-11 38-16 0-5-10-20-15-28-12-20-25-41-25-63 0-26 17-49 33-69 6-8 15-19 19-27-6-4-21-11-30-14z m-258 251c85 0 154-69 154-154s-69-154-154-154-154 69-154 154 69 154 154 154z" horiz-adv-x="1000" />

<glyph glyph-name="q-video-on" unicode="&#xe849;" d="M943 549c-12 15-33 23-52 21-23-1-37-16-61-39l-80-80c0 70-1 107-18 141-16 32-41 57-73 73-36 18-74 18-151 18h-225c-76 0-115 0-150-18-32-16-57-41-73-73-18-35-18-74-18-150v-184c0-76 0-115 18-150 16-32 41-57 73-73 35-18 74-18 150-18h225c77 0 115 0 151 18 32 16 57 41 73 73 17 34 18 71 18 141l80-80c24-23 38-38 61-39 2 0 3 0 5 0 18 0 36 8 47 21 15 18 15 38 15 71v256c0 33 0 53-15 71z m-276-291c0-61 0-95-9-112-8-16-21-29-37-37-18-9-51-9-113-9h-225c-61 0-95 0-112 9-16 8-29 21-37 37-9 17-9 51-9 112v184c0 61 0 95 9 113 8 15 21 28 37 36 17 9 51 9 112 9h225c62 0 95 0 113-9 16-8 29-21 37-36 9-18 9-52 9-113v-184z m208-16l-108 108 108 108v-216z" horiz-adv-x="1000" />

<glyph glyph-name="q-news-select" unicode="&#xe84a;" d="M871 581v227c0 10-5 18-13 22-8 5-18 5-25 0l-336-205h-268c-110 0-196-86-196-196 0-94 69-174 161-192l120-300c16-42 53-66 99-66 10 0 26 0 37 6l47 17c56 22 82 82 60 137l-82 203h22l336-205c4-2 9-4 13-4 4 0 8 2 12 4 8 4 13 13 13 22v247c58 19 100 76 100 140 0 63-41 121-100 143z m-361-569c11-29-2-60-31-72l-49-18c-3-1-13-1-17-1-15 0-41 4-52 34l-111 278h170l90-221z m311 83l-303 185c0 6 0 292 0 298l303 185v-668z" horiz-adv-x="1000" />

<glyph glyph-name="q-content-editor" unicode="&#xe84b;" d="M856 830c-6-45-24-72-57-85-27-10-56-3-67 0-25 8-52 17-67 17-57 3-104-31-115-64-5-15-12-37-19-55l-1 1-19 6c-104 33-215-20-247-120-8-22-14-49-21-77l-4-15c-6-25-24-85-30-105-7-20-16-45-28-73-15-39-33-83-49-134-15-46-10-96 13-141 24-47 68-83 118-100l72-23c20-6 41-9 61-9 83 0 162 51 187 129 16 51 27 96 37 136 8 30 14 56 21 77 6 17 22 60 33 88l11 27c11 27 22 53 29 76 15 47 11 97-11 141-25 47-67 83-120 99l-18 6c6 18 13 40 18 54 6 18 40 42 80 40 8-1 27-6 58-16 14-4 53-14 91 1 28 12 63 36 75 92 4 20-25 71-31 27z m-328-283c0-1 1-2 0-5l-30-93c-2-4-6-6-10-5l-8 3c-2 0-4 2-4 3-1 1-1 3-1 5l31 93c1 3 4 5 7 5 0 0 1 0 2 0l8-3c3 0 4-2 5-3z m-231-27c27 82 116 124 204 97l19-7-9-27c-15-1-29-11-33-25l-31-94c-3-9-2-19 2-28 3-5 6-9 11-12l-8-23-3-10-171 55c6 27 12 52 19 74z m311-314c-7-22-14-48-21-79-10-40-21-85-37-134-26-80-120-124-204-97l-72 23c-42 13-77 43-98 83-18 36-22 76-10 113 16 50 33 94 48 132 11 29 21 54 28 76 6 16 18 60 26 89l192-62 179-56c-11-28-26-71-31-88z m-36 388c44-14 79-44 99-82 19-36 22-77 10-114-7-22-17-46-28-72l-171 55 11 33c15 1 28 10 33 25l31 94c3 9 2 19-3 27-2 5-6 9-10 13l9 27 19-6z" horiz-adv-x="1000" />

<glyph glyph-name="social-q_select" unicode="&#xe84c;" d="M750 430h176l-1 162h-155l24 194h-166l-24-194h-148l24 194h-165l-24-194h-176v-162h156l-21-166h-176v-162h156l-24-194h166l24 194h148l-24-194h167l23 194h175v162h-155l20 166z m-165 0l-22-166h-148l22 166h148z" horiz-adv-x="1000" />

<glyph glyph-name="q-shield" unicode="&#xe84d;" d="M867 628c-7 19-19 36-34 50-17 15-37 22-71 35l-224 84c-10 4-17 6-26 8-8 1-16 1-24 0-9-2-16-4-26-8l-223-84c-35-13-54-20-72-35-15-14-27-31-34-50-8-21-8-42-8-79v-199c0-223 227-380 325-437 11-6 20-11 32-14 6-1 12-2 18-2 6 0 12 1 17 2 13 3 22 8 33 14 98 57 325 214 325 437v199c0 37 0 58-8 79z m-409-622c-86 56-250 184-250 344v199c0 27 0 43 3 50 3 6 6 12 12 16 5 5 20 11 45 20l190 72v-701z m334 344c0-160-164-288-250-344v701l190-72c25-9 40-15 46-20 5-4 9-10 11-16 3-7 3-23 3-50v-199z" horiz-adv-x="1000" />

<glyph glyph-name="pcs-select" unicode="&#xe84e;" d="M276 231c-4-8-5-17-5-26 0-38 30-68 67-68h181c6 0 12 6 12 13s-6 12-12 12h-181c-23 0-42 19-42 43s19 42 42 42h157s0 0 0 0c2 0 4 0 5 1 2 1 3 2 4 3 0 0 0 0 0 0 6 7 25 27 38 32 14 6 99 19 140 1 30-14 80-67 103-92 8-8 12-13 15-15l-136-128c0 0-1 0-2 0l-372 1-129 119-113 158c29 12 61 21 70 15 18-12 53-60 65-77 1-2 3-4 6-5l87-29z m685-117l-93 93-234-221 94-96c1 0 1-1 2-2l234 223c-1 1-2 2-3 3z m-307 510c-3 9-11 16-20 17l-133 20-59 120c-4 8-13 14-23 14s-18-6-22-14l-59-120-133-20c-10-1-17-8-20-17s-1-19 6-25l96-94-23-132c-1-10 2-19 10-25 5-3 10-4 15-4 4 0 8 0 11 2l119 63 119-63c4-1 8-2 11-2 6 0 11 1 15 4 8 6 12 15 10 25l-23 132 96 94c7 6 10 16 7 25z" horiz-adv-x="1000" />

<glyph glyph-name="appthumbs_ipipeline" unicode="&#xe84f;" d="M944-116h-847c-24 0-45 21-45 44v103c0 2 1 4 1 6h-9c-17 0-32 15-32 32v178c0 20 15 35 35 35h5v111h-5c-19 0-35 14-35 32v181c0 18 16 32 35 32h5v134c0 15 6 28 16 36 9 7 20 10 30 8h846c23 0 44-21 44-44v-844c0-23-21-44-44-44z m-853 153c0-2 0-4 0-6v-103c0-2 4-5 6-5h847c2 0 5 3 5 5v844c0 2-4 6-6 6l-850 0c0 0-1-2-1-6v-134h5c17 0 32-15 32-31v-182c0-17-16-32-35-32h-3v-110h6c17 0 32-15 32-33v-181c0-11-5-21-13-27-7-5-16-7-25-5h0z m-40 39h39v167h-39v-167z m0 356h39v167h-39v-167z m749-63h-28c-4 48-23 91-53 126l20 19c7 8 7 20 0 28-8 7-20 7-28 0l-19-19c-34 29-78 48-125 52v28c0 11-9 20-20 20s-19-9-19-20v-28c-48-4-92-23-126-53l-19 20c-7 7-19 8-27 0-8-7-8-19-1-27l19-20c-28-35-47-78-51-125h-29c-11 0-20-9-20-20 0-10 9-19 20-19h28c4-47 23-91 52-125l-19-20c-8-8-7-20 0-28 4-3 9-5 14-5 5 0 10 2 14 6l18 19c35-29 78-48 126-52v-28c0-11 9-20 20-20s19 9 19 20v28c47 4 91 23 126 52l19-19c4-4 9-6 14-6s10 2 13 6c8 7 8 20 0 27l-19 20c29 34 48 78 52 125h29c10 0 19 9 19 20 0 10-8 18-19 18z m-108-136l-16 15c-7 8-20 8-27 0-8-7-8-20 0-27l15-16c-27-22-61-37-97-41v20c0 11-9 20-20 20s-19-9-19-20v-20c-38 4-72 19-99 42l14 15c7 8 7 20-1 27-8 8-20 8-27 0l-13-14c-22 27-36 60-40 97h20c11 0 19 8 19 19 0 11-8 19-19 19h-20c4 37 18 70 40 97l13-14c3-4 9-6 14-6 4 0 9 2 13 6 8 7 8 19 1 27l-14 15c27 23 62 38 99 42v-20c0-11 9-20 19-20s20 9 20 20v20c36-4 70-19 97-41l-15-16c-8-7-8-20 0-27 4-4 9-6 14-6s10 2 13 6l16 16c22-28 37-61 41-98h-20c-11 0-20-9-20-20 0-10 9-19 20-19h20c-4-37-19-71-41-98z m-145 38c-44 0-79 35-79 79 0 43 35 79 79 79s79-36 79-79c0-43-36-79-79-79z m0 119c-22 0-40-18-40-40s18-40 40-40 40 18 40 40-18 40-40 40z" horiz-adv-x="1000" />

<glyph glyph-name="q-formpipe" unicode="&#xe850;" d="M618 372h-459a21 21 0 0 1-21-20 21 21 0 0 1 21-21h459a21 21 0 0 1 21 21 21 21 0 0 1-21 20z m0 109h-286a21 21 0 0 1-21-21 21 21 0 0 1 21-21h286a21 21 0 0 1 21 21 21 21 0 0 1-21 21z m0-225h-286a21 21 0 0 1-21-21 21 21 0 0 1 21-21h286a21 21 0 0 1 21 21 21 21 0 0 1-21 21z m19 594h-564a73 73 0 0 1-73-73v-831a73 73 0 0 1 73-73h647a73 73 0 0 1 73 73v753c0 23-133 151-156 151z m114-157v-9h-126v124h8a1078 1078 0 0 0 118-115z m-31-778h-647a31 31 0 0 0-31 31v831a31 31 0 0 0 31 31h510v-136a29 29 0 0 1 30-29h138v-697a31 31 0 0 0-31-31z" horiz-adv-x="800" />

<glyph glyph-name="ipipeline" unicode="&#xe851;" d="M618 406h-459a21 21 0 0 1 0-42h459a21 21 0 1 1 0 42z m0 108h-286a21 21 0 0 1 0-42h286a21 21 0 0 1 0 42z m0-225h-286a21 21 0 0 1 0-42h286a21 21 0 1 1 0 42z m102 561h-647a73 73 0 0 1-73-73v-831a73 73 0 0 1 73-73h647a73 73 0 0 1 73 73v831a73 73 0 0 1-73 73z m31-904a31 31 0 0 0-31-31h-647a31 31 0 0 0-31 31v831a31 31 0 0 0 31 31h647a31 31 0 0 0 31-31z" horiz-adv-x="800" />

<glyph glyph-name="q-voicemail" unicode="&#xe852;" d="M771 600c-144 0-229-116-229-229 0-52 18-104 51-146h-187c33 40 52 91 52 146 0 126-102 229-229 229s-229-103-229-229c0-126 103-229 229-229h542c64 0 120 22 162 65 43 44 68 105 67 164-1 113-88 229-229 229z m-542-375c-80 0-146 65-146 146s66 146 146 146 146-66 146-146-65-146-146-146z m645 41c-27-27-62-41-103-41-101 0-146 85-146 146s45 146 146 146c105 0 145-90 146-147 0-37-16-77-43-104z" horiz-adv-x="1000" />

<glyph glyph-name="q-volume-x" unicode="&#xe853;" d="M476 679c-14 7-31 5-44-5l-197-157h-152c-23 0-41-19-41-42v-250c0-23 18-42 41-42h152l197-157c8-6 17-9 26-9 7 0 13 1 18 4 15 7 24 21 24 37v584c0 16-9 30-24 37z m-59-534l-141 113c-7 6-16 9-26 9h-125v166h125c10 0 19 4 26 10l141 112v-410z m571 110c16-17 16-43 0-59-8-9-19-13-30-13s-21 4-29 13l-96 95-95-95c-16-17-43-17-59 0s-16 42 0 59l95 95-95 96c-16 16-16 42 0 59s43 16 59 0l95-96 96 96c16 16 43 16 59 0s16-43 0-59l-96-96 96-95z" horiz-adv-x="1000" />

<glyph glyph-name="q-volume-2" unicode="&#xe854;" d="M476 679c-14 7-31 5-44-5l-197-157h-152c-23 0-41-19-41-42v-250c0-23 18-42 41-42h152l197-157c8-6 17-9 26-9 7 0 13 1 18 4 15 7 24 21 24 37v584c0 16-9 30-24 37z m-59-534l-141 113c-7 6-16 9-26 9h-125v166h125c10 0 19 4 26 10l141 112v-410z m541 205c0-122-47-237-134-324-8-8-19-12-29-12s-22 4-30 12c-16 16-16 43 0 59 71 71 110 165 110 265 0 100-39 194-110 265-16 16-16 43 0 59 16 16 43 16 59 0 87-87 134-202 134-324z m-281 177c47-47 73-110 73-177 0-66-26-130-73-177-8-8-19-12-29-12s-22 4-30 12c-16 17-16 43 0 59 31 31 49 74 49 118 0 45-17 87-49 118-16 16-16 43 0 59s43 16 59 0z" horiz-adv-x="1000" />

<glyph glyph-name="tag-02" unicode="&#xe855;" d="M778 293l-292 292c-15 15-24 24-36 32-11 6-23 11-35 14-14 3-27 3-48 3h-119c-49 0-77 0-102-13-23-11-41-29-53-52-13-26-13-53-13-103v-79c0-21 0-34 3-47 3-13 8-24 15-35 7-12 16-21 31-36l312-313c35-34 55-54 82-63 12-4 25-6 37-6 13 0 25 2 37 6 28 9 47 29 82 64l99 99c35 35 54 54 63 81 8 25 8 50 0 74-9 28-28 47-63 82z m-13-131c-3-9-19-25-44-50l-99-99c-24-24-40-41-50-44-8-2-16-2-24 0-9 3-26 20-50 44l-312 312c-11 11-18 18-20 22-2 3-4 7-5 11-1 5-1 14-1 29v79c0 35 0 58 4 67 4 7 10 13 18 17 8 4 31 4 66 4h119c15 0 25 0 29-1 4-1 8-2 12-4 4-3 10-9 21-20l292-292c25-25 41-41 44-50 3-8 3-17 0-25z m103 184c-7-8-18-12-28-12s-20 4-28 12l-304 304c-20 20-28 28-36 33-7 4-15 7-23 9-9 2-22 2-48 2h-161c-22 0-40 18-40 40s18 40 40 40h161c31 0 48 0 67-4 16-4 32-10 46-19 16-10 28-22 51-45l303-303c16-16 16-41 0-57z" horiz-adv-x="960" />

<glyph glyph-name="tag-01" unicode="&#xe856;" d="M903 304c-12 36-40 64-90 114l-307 307c-15 15-24 24-36 32-11 6-23 11-35 14-14 3-27 3-48 3h-179c-49 0-77 0-102-13-23-11-41-29-53-52-13-26-13-53-13-103v-179c0-21 0-34 3-47 3-13 8-24 15-35 7-12 16-21 31-36l307-307c50-51 78-78 115-90 16-5 32-8 49-8 17 0 33 3 49 8 37 12 65 39 115 90l89 88c52 52 78 78 90 115 10 32 10 67 0 99z m-77-74c-6-19-28-41-70-83l-89-89c-41-41-64-64-82-70-16-5-34-5-50 0-18 6-41 29-82 70l-307 307c-11 11-18 18-20 22-2 3-4 7-5 11-1 5-1 14-1 29v179c0 35 0 58 4 67 4 7 10 13 18 17 8 4 31 4 66 4h179c15 0 25 0 29-1 4-1 8-2 12-4 4-3 10-9 21-20l307-307c42-42 64-65 70-83 6-16 6-33 0-49z" horiz-adv-x="960" />

<glyph glyph-name="q-write" unicode="&#xe857;" d="M875 303v-175c0-76 0-115-18-150-16-32-41-57-73-73-36-18-74-18-151-18h-350c-76 0-115 0-150 18-32 16-57 41-73 73-18 35-18 74-18 150v350c0 77 0 115 18 151 16 32 41 57 73 73 35 18 74 18 150 18h175c23 0 42-19 42-42s-19-41-42-41h-175c-61 0-95 0-112-9-16-8-29-21-37-37-9-18-9-51-9-113v-350c0-61 0-95 9-113 8-15 21-28 37-36 17-9 51-9 112-9h350c62 0 95 0 113 9 16 8 29 21 37 36 9 18 9 52 9 113v175c0 23 18 42 41 42s42-19 42-42z m50 283l-398-398c-16-16-25-25-38-33-11-7-23-12-36-15-14-3-28-3-50-3h-70c-23 0-41 18-41 41v70c0 22 0 36 3 50 3 13 8 25 15 36 8 13 17 22 33 38l398 398c49 49 135 49 184 0 51-50 51-133 0-184z m-59 125c-17 18-48 18-66 0l-398-398c-11-11-18-18-21-22-2-4-4-8-5-12-1-5-1-15-1-31v-28h28c16 0 26 0 31 1 4 1 8 3 12 5 4 3 11 10 22 21l398 398c19 19 19 48 0 66z" horiz-adv-x="1000" />

<glyph glyph-name="q-bento-formpipe" unicode="&#xe85a;" d="M708 252c3-3 5-8 5-13s-2-10-5-13c-4-4-8-5-14-5h-251c-5 0-9 1-13 5-3 3-5 8-5 13s2 10 5 13c4 4 8 5 13 5h251c6 0 10-1 14-5z m-14 107h-402c-5 0-9-1-13-5-4-4-6-8-6-13 0-5 2-9 6-12 3-4 7-6 13-6h402c6 0 10 2 14 6 3 3 5 7 5 12 0 5-2 9-6 13-4 4-8 5-13 5z m154 287v-661c0-17-7-32-19-44-13-13-28-20-45-20h-568c-17 0-33 7-45 20-13 12-19 27-19 44v730c0 17 6 32 19 44 12 13 28 20 45 20h495c6 0 21-10 45-30 21-19 42-39 61-60 21-22 31-36 31-43z m-37-49h-121c-7 0-13 2-18 7-6 5-8 11-8 18v120h-448c-7 0-14-3-19-8s-8-12-8-19v-730c0-7 3-14 8-19s12-8 19-8h568c7 0 14 3 19 8s8 12 8 19v612z m0 44c-32 36-67 70-103 101h-7v-109h110v8z m-381-191c-3-4-5-8-5-14 0-5 2-9 5-13 4-3 8-5 13-5h251c6 0 10 2 14 5 3 4 5 8 5 13 0 6-2 10-5 14-4 3-8 5-14 5h-251c-5 0-9-2-13-5z" horiz-adv-x="1000" />

<glyph glyph-name="q-bento-hq" unicode="&#xe85b;" d="M500 779c-236 0-429-193-429-429 0-236 193-429 429-429 236 0 429 193 429 429 0 236-193 429-429 429z m0-822c-217 0-393 176-393 393s176 393 393 393 393-176 393-393-176-393-393-393z m-85 505h24v-226h-24v104h-141v-104h-24v226h24v-101h141v101z m280-252c-16 0-32 8-49 26 55 9 95 57 94 113 0 66-51 115-119 115-68 0-119-49-119-115 0-65 49-113 115-115 30-31 52-43 78-43 21-1 42 9 55 26l-12 13c-10-13-26-20-43-20z m-79 45c-51 1-91 43-90 94 0 51 41 92 92 93 52 1 94-40 95-92 1-51-40-94-92-95-2 0-3 0-5 0z" horiz-adv-x="1000" />

<glyph glyph-name="venn-diagram-q" unicode="&#xe860;" d="M646 621c-54 0-104-16-146-43-42 27-92 43-146 43-149 0-271-122-271-271s122-271 271-271c54 0 104 16 146 43 42-27 92-43 146-43 149 0 271 122 271 271s-122 271-271 271z m-146-387c-26 32-42 72-42 116s16 84 42 116c26-32 42-72 42-116s-16-84-42-116z m-333 116c0 103 84 188 187 188 29 0 56-8 81-19-37-46-60-105-60-169s23-122 60-169c-25-11-52-18-81-18-103 0-187 84-187 187z m479-187c-29 0-56 7-81 18 38 47 60 105 60 169s-22 123-60 169c25 11 52 19 81 19 103 0 187-85 187-188s-84-187-187-187z" horiz-adv-x="1000" />

<glyph glyph-name="pathfinder_q" unicode="&#xe861;" d="M232 409l6-3c49-23 106-49 155-84 6-4 14-3 19 3 4 6 2 14-4 18-49 35-104 61-154 85l30 79c1 4 0 10-3 13-4 4-9 5-14 4l-247-72c-4-1-8-4-9-8-2-4-1-9 1-12l142-216c3-4 8-6 13-6 5 1 9 4 11 9l27 74c54-25 113-54 155-94 12-10 22-21 30-33 3-4 7-5 11-5 3 0 6 0 8 2 6 5 7 13 3 19-9 13-21 25-33 37-49 45-116 77-176 104-3 2-7 2-10 1-4-2-6-5-8-8l-23-63-117 179 205 60-24-66c-3-7 0-14 7-17z m757 35c-1 4-4 7-9 8l-247 72c-5 2-10 0-14-3-3-4-4-9-3-14l30-79c-68-32-143-68-203-124-36-33-64-70-82-111-22-47-32-99-32-155v-132c0-7 6-13 13-13s13 6 13 13v132c0 52 10 101 30 144 17 38 43 72 76 103 59 54 134 90 201 121l6 3c6 3 9 10 7 17l-25 66 206-60-118-179-23 63c-1 3-4 6-7 8-4 1-7 1-11-1-59-27-126-59-175-104-52-48-77-106-77-181v-131c0-8 6-14 13-14s14 6 14 14v131c0 67 21 119 68 162 42 39 101 68 155 93l28-74c1-4 6-8 11-8 5-1 9 1 12 5l142 216c2 4 3 8 1 12z m-547-222c7 0 13 6 13 13v351c0 7-6 13-13 13h-69l127 172 127-172h-69c-7 0-13-6-13-13v-225c0-8 6-14 13-14s13 6 13 14v212h82c5 0 10 3 12 7 2 4 2 10-1 14l-154 207c-2 4-6 6-10 6s-8-2-11-6l-153-207c-3-4-4-10-1-14 2-4 6-7 11-7h82v-338c0-7 6-13 14-13z" horiz-adv-x="1000" />

<glyph glyph-name="q-email-select" unicode="&#xe865;" d="M457 479c0 0 7 0 0 0 46-26 93-46 126-66 40-20 86-20 132-7 20 7 398 226 596 338-20 60-73 106-145 106h-1007c-73 0-132-46-152-113 99-59 337-192 450-258z m868 119c-100-53-279-159-332-192l332-410c0 0 0 6 0 6v596z m-451-258c-59-33-99-59-106-59-79-34-172-27-245 13-26 13-53 26-79 39l-371-457c26-13 53-26 86-26h1007l0 0c33 0 59 7 86 26l-378 464z m-874 245v-576c0 0 0-7 0-7l325 404c-53 27-232 126-325 179z" horiz-adv-x="1325" />

<glyph glyph-name="q-lead" unicode="&#xe867;" d="M438 350c138 0 250 112 250 250s-112 250-250 250-250-112-250-250 111-250 250-250z m0 375c68 0 125-56 125-125s-57-125-125-125-125 56-125 125 56 125 125 125z m175-437h-350c-70 0-138-30-187-80-48-52-76-119-76-191v-105c0-34 28-62 63-62s62 28 62 62v105c0 39 15 77 41 104 26 27 60 42 97 42h350c36 0 70-15 96-42 26-27 41-65 41-104v-105c0-34 28-62 63-62s62 28 62 62v105c0 72-27 139-76 191-49 51-117 80-186 80z m575 250h-125v125c0 34-29 62-63 62s-62-28-62-62v-125h-125c-35 0-63-29-63-63s28-62 63-62h125v-125c0-35 28-63 62-63s63 28 63 63v125h125c34 0 62 28 62 62s-28 63-62 63z" horiz-adv-x="1250" />

<glyph glyph-name="activity-q" unicode="&#xe868;" d="M958 354c0-25-16-41-41-41h-138l-116-346c-5-21-21-34-38-34s-33 13-37 29l-213 630-87-259c-5-12-21-25-38-25h-167c-25 0-41 17-41 42s16 42 41 42h138l117 346c4 16 20 29 37 29s33-13 38-29l212-630 88 259c4 16 20 29 37 29h167c25 0 41-17 41-42z" horiz-adv-x="1000" />

<glyph glyph-name="alert-q-unread-" unicode="&#xe869;" d="M750 517c67 0 125 54 125 125s-58 125-125 125-125-54-125-125 58-125 125-125z m0 166c21 0 42-16 42-41s-21-42-42-42-42 17-42 42 21 41 42 41z m-117-679c17-17 13-42-4-58-37-34-87-50-137-50s-100 16-138 50c-16 16-16 41-4 58 13 17 42 21 58 4 50-41 125-41 171 0 17 13 42 13 54-4z m267 154c0-20-8-33-25-45s-33-13-104-13h-558c-71 0-88 0-105 13-16 12-25 25-25 45s9 34 55 105c41 66 62 154 62 254 0 79 29 150 88 208 66 67 162 96 254 79 25-4 29-33 29-54s-25-37-46-33c-67 12-133-13-183-59-42-37-63-91-63-145 0-117-25-217-75-296-4-13-12-25-21-38 13 0 21 0 34 0h554c12 0 25 0 33 0-4 13-12 25-21 38-25 41-45 87-58 141-8 21 8 46 29 50 21 9 46-8 50-29 13-41 29-83 50-116 46-71 54-84 46-105z" horiz-adv-x="1000" />

<glyph glyph-name="alert-q" unicode="&#xe86a;" d="M288 725c54 54 133 83 212 83s154-29 213-83c54-54 87-129 87-208 0-121 33-200 63-254l0 0c16-25 29-42 37-59 4-8 8-12 13-21 0-4 4-8 4-12 0-4 4-13 4-21 0-4 0-17-8-25-5-8-13-17-17-21-8-8-21-8-25-8l0 0c-4 0-13 0-21 0-12 0-33 0-58 0h-575c-25 0-46 0-59 0-8 0-12 0-20 0l0 0c-5 0-17 4-25 8-5 4-13 9-17 21-13 17-13 25-13 33 0 9 0 17 5 21 0 4 4 9 4 13 4 4 8 12 12 21 9 12 21 33 38 58l0 0c33 50 62 133 62 254-4 71 29 142 84 200z m212 0c-58 0-112-21-154-62-38-38-63-92-63-146 0-138-37-234-79-296-8-13-16-25-21-38 9 0 21 0 34 0h566c13 0 25 0 34 0-4 9-13 21-21 38-42 67-79 162-79 296 0 54-21 108-63 146-41 41-96 62-154 62z m-146-721c17 17 42 21 59 4 20-21 54-33 87-33 33 0 63 12 88 33 16 17 45 13 58-4 17-17 12-46-4-58-38-34-88-54-142-54-54 0-104 20-142 50-16 16-16 41-4 62z" horiz-adv-x="1000" />

<glyph glyph-name="alert-triangle-q" unicode="&#xe86b;" d="M946 96l-342 592c-21 37-33 62-58 70-21 9-46 9-67 0-25-8-37-33-62-70l-342-592c-25-38-37-63-33-88 4-25 12-46 33-58 25-17 50-17 92-17h683c46 0 71 0 92 17 21 12 33 33 33 58 8 25-4 50-29 88z m-92-79h-687c-17 0-34 0-42 0 4 8 13 21 21 37l342 592c8 12 16 29 20 33 5-8 13-21 21-33l346-592c8-12 17-29 21-37-8 0-25 0-42 0z m-300 104c0-21-21-42-41-42-25 0-42 21-42 42 0 25 17 42 42 42 20 0 41-17 41-42z m0 333v-166c0-21-16-42-41-42-25 0-42 21-42 42v166c0 25 17 42 42 42 25 0 41-17 41-42z" horiz-adv-x="1000" />

<glyph glyph-name="bank-q" unicode="&#xe86c;" d="M838 433c8 0 20 5 33 9 17 8 29 21 37 37 5 13 9 21 9 34 0 8 0 20 0 29v46c0 8 0 16 0 25 0 8 0 16-4 29-5 12-17 25-30 33-8 8-20 13-25 13-8 4-16 4-25 4l-308 71c0 0 0 0 0 0-4 0-8 4-17 4-4 0-8 0-12 0-4 0-13 0-17-4 0 0 0 0 0 0l-312-67c0 0 0 0 0 0-9 0-17-4-25-4-4-4-17-9-25-17-13-8-21-21-25-33-4-9-9-21-9-29 0-9 0-17 0-25 0 0 0 0 0 0v-46c0 0 0 0 0 0 0-13 0-21 0-29 0-9 5-21 9-34 8-16 21-29 37-37 13-4 21-9 34-9 0 0 4 0 4 0v-250c0 0-4 0-4 0-9 0-21-4-34-8-16-8-29-21-37-37-4-13-9-21-9-34 0-8 0-21 0-29v-37c0-13 0-21 0-30 0-8 5-21 9-33 8-17 21-29 37-38 13 0 21-4 34-4 8 0 20 0 29 0h621c12 0 20 0 29 0 8 0 21 4 33 9 17 8 29 20 38 37 4 13 8 21 8 34 0 8 0 20 0 29v37c0 13 0 21 0 29 0 9-4 21-8 34-9 16-21 29-38 37-12 4-21 9-33 9 0 0-4 0-4 0v250c-5-5 0-5 0-5z m-5-391c0-13 0-21 0-25 0 0 0 0 0 0 0 0 0 0 0 0-4 0-12 0-25 0h-616c-13 0-21 0-25 0 0 0 0 0 0 0 0 0 0 0 0 0 0 4 0 12 0 25v33c0 13 0 21 0 25 0 0 0 0 0 0 0 0 0 0 0 0 4 0 12 0 25 0h616c13 0 21 0 25 0 0 0 0 0 0 0 0 0 0 0 0 0 0-4 0-12 0-25v-33z m-583 141v250h104v-250h-104z m188 0v250h125v-250h-125z m208 0v250h104v-250h-104z m187 334c0 0 0 0 0 0 0 0 0 0 0 0-4 0-12 0-25 0h-616c-13 0-21 0-25 0 0 0 0 0 0 0 0 0 0 0 0 0 0 4 0 12 0 25v46c0 12 0 16 0 20 0 0 0 0 0 0 0 0 0 0 0 0 4 0 8 5 21 5l308 66c0 4 4 4 4 4 0 0 0 0 0 0 0 0 0 0 0 0 0 0 4 0 4 0l309-66c8-4 16-4 20-4 0 0 0 0 0 0 0 0 0 0 0 0 0-5 0-9 0-21v-46c0-17 0-25 0-29z" horiz-adv-x="1000" />

<glyph glyph-name="bar-chart-down-q" unicode="&#xe86d;" d="M221 488l-125 125c-17 16-17 41 0 58 17 17 42 17 58 0l54-54v150c0 21 21 41 42 41s42-20 42-41v-150l54 54c17 17 42 17 58 0 17-17 17-42 0-58l-125-125c-4-5-8-5-12-9-4-4-13-4-17-4s-12 0-17 4c-4 0-8 4-12 9z m321-388c25 0 41 21 41 42v416c0 25-16 42-41 42s-42-17-42-42v-416c0-21 17-42 42-42z m-209 208v-166c0-21 17-42 42-42s42 21 42 42v166c0 25-17 42-42 42s-42-17-42-42z m609 367c-17 33-42 58-75 71-34 21-75 21-150 21h-175c-25 0-42-21-42-42s17-42 42-42h175c62 0 96 0 112-8 17-8 29-21 38-37 8-17 8-50 8-113v-350c0-62 0-96-8-112-9-17-21-30-38-38-16-8-50-8-112-8h-350c-63 0-96 0-113 8-16 8-29 21-37 38-9 16-9 50-9 112v175c0 25-16 42-41 42s-42-17-42-42v-175c0-75 0-117 17-150 16-33 41-58 75-75 33-17 75-17 150-17h350c75 0 116 0 150 17 33 17 58 42 75 75 16 33 16 75 16 150v350c0 75 0 117-16 150z m-192-533v250c0 25-21 41-42 41s-41-16-41-41v-250c0-21 21-42 41-42s42 21 42 42z" horiz-adv-x="1000" />

<glyph glyph-name="bar-chart-q" unicode="&#xe86e;" d="M908 388c-8 16-20 29-37 37-17 8-38 8-63 8h-141v225c0 25 0 46-9 63-8 17-20 29-37 37-17 9-38 9-63 9h-116c-25 0-46 0-63-9-16-8-29-20-37-37-9-17-9-38-9-63v-58h-141c-25 0-46 0-63-8-16-9-29-21-37-38-9-16-9-37-9-62v-450c0-25 0-46 9-63 8-17 21-29 37-37 17-9 38-9 63-9h616c25 0 46 0 63 9 17 8 29 20 37 37 9 17 9 38 9 63v283c0 25 0 46-9 63z m-575-371h-141c-13 0-25 0-25 0 0 4 0 16 0 25v450c0 12 0 25 0 25 0 0 12 0 25 0h141v-500z m250 0h-166v641c0 13 0 25 0 25 4 0 16 0 25 0h116c13 0 25 0 25 0 0-4 0-16 0-25v-641z m225 0h-141v333h141c13 0 25 0 25 0 0-4 0-17 0-25v-283c0-13 0-25 0-25 0 0-12 0-25 0z" horiz-adv-x="1000" />

<glyph glyph-name="bar-line-chart-q" unicode="&#xe86f;" d="M208 183v-166c0-25-16-42-41-42s-42 17-42 42v166c0 25 17 42 42 42s41-17 41-42z m292 292c-25 0-42-17-42-42v-416c0-25 17-42 42-42s42 17 42 42v416c0 25-17 42-42 42z m333-125c-25 0-41-17-41-42v-291c0-25 16-42 41-42s42 17 42 42v291c0 25-17 42-42 42z m75 113c-41-42-108-42-145 0-21 20-30 41-30 66l-154 59c0 0 0 0 0 0-33-34-83-38-125-17l-187-133c8-34 0-71-29-96-42-42-109-42-146 0-42 41-42 108 0 146 33 33 83 37 125 16l179 134c-8 33 0 70 29 95 42 42 108 42 146 0 21-20 29-41 29-66l154-59c0 0 0 0 0 0 42 42 109 42 146 0 46-37 46-104 8-145z m-725-34c-8 9-20 9-29 0-8-8-8-21 0-29 9-8 21-8 29 0 5 4 5 21 0 29z m334 250c-9 9-21 9-29 0-9-8-9-21 0-29 8-8 20-8 29 0 4 4 4 21 0 29z m333-125c-8 9-21 9-29 0-8-8-8-21 0-29 8-8 21-8 29 0 4 4 4 21 0 29z" horiz-adv-x="1000" />

<glyph glyph-name="bills-stacked-q" unicode="&#xe870;" d="M958 100c0-25-16-42-41-42h-834c-25 0-41 17-41 42s16 42 41 42h834c25 0 41-17 41-42z m-41-83h-834c-25 0-41-17-41-42s16-42 41-42h834c25 0 41 17 41 42s-16 42-41 42z m-542 479c0 71 46 146 125 146s125-75 125-146-46-146-125-146-125 75-125 146z m83 0c0-42 25-63 42-63s42 21 42 63-25 62-42 62-42-20-42-62z m500 187v-375c0-45-37-83-83-83h-750c-46 0-83 38-83 83v375c0 46 37 84 83 84h750c46 0 83-38 83-84z m-83 0h-750v-375h750v375z" horiz-adv-x="1000" />

<glyph glyph-name="bookmark-q" unicode="&#xe871;" d="M833 613c0 25-4 45-16 66-17 34-42 59-71 71-21 8-42 13-67 17-21 0-50 0-83 0h-188c-33 0-62 0-87 0-25 0-46-4-67-17-33-17-58-42-71-71-8-25-12-46-16-66 0-21 0-50 0-84v-554c0-17 8-29 21-38 12-8 29-8 41 0l271 155 271-155c12-8 29-8 42 0 12 9 20 21 20 38v550c0 33 0 63 0 88z m-83-567l-229 129c-13 8-29 8-42 0l-229-129v479c0 38 0 58 0 79 0 17 4 29 8 34 9 16 21 29 38 37 4 4 17 4 33 8 21 0 42 0 79 0h184c37 0 58 0 79 0 17 0 29-4 33-8 17-8 29-21 38-37 4-9 4-17 8-34 0-21 0-41 0-79v-479z" horiz-adv-x="1000" />

<glyph glyph-name="calculator-q" unicode="&#xe872;" d="M771 204c0-25-17-41-42-41h-166c-25 0-42 16-42 41s17 42 42 42h166c25 0 42-17 42-42z m146 321v-354c0-33 0-63 0-83 0-25-4-46-17-67-17-34-42-59-71-71-21-8-41-13-66-17-21 0-50 0-84 0h-354c-33 0-62 0-83 0-25 0-46 4-67 17-33 17-58 42-71 71-8 21-12 42-16 67 0 20 0 50 0 83v354c0 33 0 63 0 83 0 25 4 46 16 67 17 33 42 58 71 71 21 8 42 12 67 17 21 0 50 0 83 0h354c34 0 63 0 84 0 25 0 45-5 66-17 34-17 59-42 71-71 8-21 13-42 17-67 0-20 0-50 0-83z m-84 0c0 38 0 58 0 79 0 17-4 29-8 34-8 16-21 29-37 37-9 4-17 4-34 8-21 0-41 0-79 0h-350c-37 0-58 0-79 0-17 0-29-4-33-8-17-8-30-21-38-37-4-5-4-17-8-34 0-21 0-41 0-79v-350c0-37 0-58 0-79 0-17 4-29 8-33 8-17 21-30 38-38 8-4 16-4 33-8 21 0 42 0 79 0h350c38 0 58 0 79 0 17 0 29 4 34 8 16 8 29 21 37 38 4 8 4 16 8 33 0 21 0 42 0 79v350z m-562-71h42v-41c0-25 16-42 41-42s42 17 42 42v41h42c25 0 41 17 41 42s-16 42-41 42h-42v41c0 25-17 42-42 42s-41-17-41-42v-41h-42c-25 0-42-17-42-42s17-42 42-42z m429 154l-458-458c-17-17-17-42 0-58 16-17 41-17 58 0l458 458c17 17 17 42 0 58-16 17-41 17-58 0z" horiz-adv-x="1000" />

<glyph glyph-name="calendar-date-selection-q" unicode="&#xe873;" d="M583 267c0 25 17 41 42 41h83c25 0 42-16 42-41s-17-42-42-42h-83c-25 0-42 17-42 42z m334 216v-354c0-33 0-62 0-83 0-25-4-46-17-67-17-33-42-58-71-71-21-8-41-12-66-16-21 0-50 0-84 0h-354c-33 0-62 0-83 0-25 0-46 4-67 16-33 17-58 42-71 71-8 21-12 42-16 67 0 21 0 50 0 83v354c0 34 0 63 0 84 0 25 4 46 16 66 17 34 42 59 71 71 21 9 42 13 67 17 12 4 29 4 50 4v42c0 25 16 41 41 41s42-16 42-41v-42h250v42c0 25 17 41 42 41s41-16 41-41v-42c21 0 38 0 55 0 25 0 45-4 66-17 34-16 59-41 71-70 8-21 13-42 17-67 0-25 0-54 0-88z m-84-91h-666v-259c0-37 0-58 0-79 0-16 4-29 8-33 8-17 21-29 38-38 8-4 16-4 33-8 21 0 42 0 79 0h350c38 0 58 0 79 0 17 0 29 4 34 8 16 9 29 21 37 38 4 8 4 17 8 33 0 21 0 42 0 79v259z m0 91c0 38 0 59 0 80 0 16-4 29-8 33-8 17-21 29-37 37-9 5-17 5-34 9-12 0-25 0-46 0v-42c0-25-16-42-41-42s-42 17-42 42v42h-250v-42c0-25-17-42-42-42s-41 17-41 42v42c-17 0-34 0-46 0-17 0-29-4-33-9-17-8-30-20-38-37-4-4-4-17-8-33 0-21 0-42 0-80v-8h666v8z" horiz-adv-x="1000" />

<glyph glyph-name="calendar-q" unicode="&#xe874;" d="M917 571c0 25-4 46-17 67-17 33-42 58-71 70-21 9-41 13-66 17-17 0-34 0-55 0v42c0 25-16 41-41 41s-42-16-42-41v-42h-250v42c0 25-17 41-42 41s-41-16-41-41v-42c-21 0-38 0-54 0-25 0-46-4-67-17-33-16-58-41-71-70-8-25-12-46-17-67 0-21 0-50 0-83v-355c0-33 0-62 0-83 0-25 5-46 17-67 17-33 42-58 71-71 21-8 42-12 67-16 20 0 50 0 83 0h354c33 0 63 0 83 0 25 0 46 4 67 16 33 17 58 42 71 71 8 21 12 42 17 67 0 21 0 50 0 83v350c4 34 4 63 4 88z m-84-438c0-37 0-58 0-79 0-16-4-29-8-33-8-17-21-29-37-38-9-4-17-4-34-8-21 0-41 0-79 0h-350c-37 0-58 0-79 0-17 0-29 4-33 8-17 9-30 21-38 38-4 8-4 17-8 33 0 21 0 42 0 79v259h666v-259z m0 342h-666v8c0 38 0 59 0 80 0 16 4 29 8 33 8 17 21 29 38 37 4 5 16 5 33 9 12 0 29 0 46 0v-42c0-25 16-42 41-42s42 17 42 42v42h250v-42c0-25 17-42 42-42s41 17 41 42v42c17 0 34 0 46 0 17 0 29-4 34-9 16-8 29-20 37-37 4-8 4-17 8-33 0-21 0-42 0-80v-8z" horiz-adv-x="1000" />

<glyph glyph-name="checkmark-q" unicode="&#xe875;" d="M863 571l-459-458c-16-17-41-17-58 0l-208 208c-17 17-17 42 0 58 16 17 41 17 58 0l179-179 429 429c17 17 42 17 59 0 16-16 16-41 0-58z" horiz-adv-x="1000" />

<glyph glyph-name="copy-q" unicode="&#xe876;" d="M958 692c0 16-4 33-12 50-13 25-29 41-54 54-17 8-34 8-50 12-17 0-34 0-59 0h-320c-21 0-42 0-59 0-12-4-29-4-46-12-25-13-41-29-54-54-8-17-8-34-12-50 0-17 0-34 0-59v-75h-75c-21 0-42 0-59 0-16-4-33-4-50-12-25-13-41-29-54-54-8-17-8-34-12-50 0-17 0-34 0-59v-320c0-21 0-42 0-59 0-17 4-33 12-50 13-25 29-42 54-54 17-4 34-4 50-8 17 0 34 0 59 0h321c20 0 41 0 58 0 17 0 33 4 50 12 25 13 42 29 54 54 8 17 13 34 13 50 0 17 0 34 0 59v75h75c20 0 41 0 58 0 17 0 33 4 50 12 25 13 42 29 54 54 8 17 13 34 13 50 0 17 0 34 0 59v316c-5 25-5 42-5 59z m-333-625c0-25 0-38 0-50 0-13-4-17-4-17-4-8-8-13-17-17 0 0-8-4-16-4-13 0-30 0-50 0h-321c-25 0-38 0-50 0-13 0-17 4-17 4-8 4-12 9-17 17 0 0-4 8-4 17 0 12 0 29 0 50v316c0 25 0 38 0 50 0 13 4 17 4 17 5 8 9 13 17 17 0 4 4 8 17 8 12 0 29 0 50 0h75v-158c0-21 0-42 0-59 0-16 4-33 12-50 13-25 29-41 54-54 17-8 34-8 50-12 17 0 34 0 59 0h158v-75z m250 250c0-25 0-38 0-50 0-13-4-17-4-17-4-8-8-12-17-17 0 0-8-4-16-4-13 0-30 0-50 0h-317c-25 0-38 0-50 0-13 0-17 4-17 4-8 5-12 9-16 17 0 0-5 8-5 17 0 12 0 29 0 50v316c-8 25-8 38-8 50 0 13 4 17 4 17 4 8 9 13 17 17 4 4 8 8 21 8 12 0 29 0 50 0h316c25 0 38 0 50 0 13 0 17-4 17-4 8-4 13-8 17-17 0 0 4-8 4-16 0-13 0-30 0-50v-321z" horiz-adv-x="1000" />

<glyph glyph-name="clock-q" unicode="&#xe877;" d="M704 250c-8-21-33-29-54-17l-167 84c-16 4-25 16-25 33v250c0 25 17 42 42 42s42-17 42-42v-225l141-71c21-12 30-37 21-54z m254 100c0-254-204-458-458-458-254 0-458 204-458 458 0 254 204 458 458 458 254 0 458-204 458-458z m-83 0c0 208-167 375-375 375s-375-167-375-375 167-375 375-375 375 167 375 375z" horiz-adv-x="1000" />

<glyph glyph-name="dashboard-q" unicode="&#xe878;" d="M833 433h-250c-45 0-83-37-83-83v-333c0-46 38-84 83-84h250c46 0 84 38 84 84v333c0 46-38 83-84 83z m0-416h-250v333h250v-333z m-458 750h-208c-46 0-84-38-84-84v-333c0-46 38-83 84-83h208c46 0 83 37 83 83v333c0 46-37 84-83 84z m0-417h-208v333h208v-333z m0-125h-208c-46 0-84-37-84-83v-125c0-46 38-84 84-84h208c46 0 83 38 83 84v125c0 46-37 83-83 83z m0-208h-208v125h208v-125z m458 750h-250c-45 0-83-38-83-84v-125c0-45 38-83 83-83h250c46 0 84 38 84 83v125c0 46-38 84-84 84z m0-209h-250v125h250v-125z" horiz-adv-x="1000" />

<glyph glyph-name="debt-q" unicode="&#xe879;" d="M946 171c17-17 17-42 0-58-17-17-42-17-58 0l-55 54v-150c0-21-16-42-41-42-21 0-42 21-42 42v150l-54-54c-17-17-42-17-58 0-17 16-17 41 0 58l125 125c4 4 8 4 12 8 4 4 13 4 17 4s12 0 16-4c5 0 9-4 13-8l125-125z m12 379v-158c0-25-20-42-41-42s-42 17-42 42v41h-750v-200c0-37 0-58 8-70 5-9 9-13 17-17 8-4 29-4 67-4h283c25 0 42-21 42-42s-17-42-42-42h-283c-50 0-79 0-109 13-25 12-41 29-54 54-12 29-12 58-12 108v317c0 50 0 79 12 108 13 25 29 42 54 55 30 12 59 12 109 12h566c50 0 80 0 109-12 21-13 41-34 54-55 12-29 12-58 12-108z m-83 0c0 38 0 58-8 71-4 8-9 12-17 17-8 4-29 4-67 4h-566c-38 0-59 0-71-9-8-4-13-8-17-16-4-9-4-29-4-67v-33h750v33z" horiz-adv-x="1000" />

<glyph glyph-name="download-q" unicode="&#xe87a;" d="M263 404c-17 17-17 42 0 59 16 16 41 16 58 0l137-138v400c0 25 17 42 42 42s42-17 42-42v-400l137 138c17 16 42 16 59 0 16-17 16-42 0-59l-209-208c-16-17-41-17-58 0l-208 208z m612-137c-25 0-42-17-42-42v-50c0-37 0-58 0-79 0-17-4-29-8-33-8-17-21-30-37-38-9-4-17-4-34-8-21 0-41 0-79 0h-350c-37 0-58 0-79 0-17 0-29 4-33 8-17 8-30 21-38 38-4 8-4 16-8 33 0 21 0 42 0 79v50c0 25-17 42-42 42s-42-17-42-42v-50c0-33 0-62 0-83 0-25 5-46 17-67 17-33 42-58 71-71 21-8 42-12 67-17 20 0 50 0 83 0h354c33 0 63 0 83 0 25 0 46 5 67 17 33 17 58 42 71 71 8 21 12 42 17 67 0 21 0 50 0 83v50c4 25-13 42-38 42z" horiz-adv-x="1000" />

<glyph glyph-name="edit-q" unicode="&#xe87b;" d="M904 754c-62 63-162 63-225 0l-550-550c0 0 0 0 0 0-8-8-21-21-25-29-4-8-12-21-12-29-4-13-4-25-9-38 0 0 0 0 0-4l-16-142c0-12 4-25 12-33 9-8 21-12 34-12l137 12c0 0 0 0 4 0 13 0 25 4 38 8 12 5 21 9 29 13 12 8 21 17 33 25 0 0 0 0 0 0l425 425c0 0 0 0 0 0 0 0 0 0 0 0l125 125c63 67 63 167 0 229z m-608-716c-13-13-17-17-21-17 0-4-4-4-8-4-4 0-9 0-25-4l-88-9 9 88c4 21 4 21 4 25 0 4 4 8 4 8 0 4 4 4 17 21l395 396 109-109-396-395z m550 550l-96-96-108 108 96 96c29 29 79 29 108 0 29-29 29-79 0-108z" horiz-adv-x="1000" />

<glyph glyph-name="expand-q" unicode="&#xe87c;" d="M167 624l0-149c0-23-19-42-42-42-23 0-42 19-42 42l0 250c0 23 19 42 42 42l250 0c23 0 42-19 42-42 0-23-19-42-42-42l-149 0 179-178c16-17 16-43 0-59-17-17-43-17-59 0l-179 178z m458 59c-23 0-42 19-42 42 0 23 19 42 42 42h250c23 0 42-19 42-42v-250c0-23-19-42-42-42-23 0-42 19-42 42v149l-178-178c-17-17-43-17-59 0-17 16-17 42 0 59l178 178h-149z m-500-416c23 0 42-19 42-42l0-149 179 179c16 16 42 16 59 0 16-17 16-43 0-59l-179-179h149c23 0 42-19 42-42 0-23-19-42-42-42h-250c-11 0-22 5-29 12-8 8-13 19-13 30l0 250c0 23 19 42 42 42z m649-250l-178 179c-17 16-17 42 0 59 16 16 42 16 59 0l178-179v149c0 23 19 42 42 42 23 0 42-19 42-42v-250c0-23-19-42-42-42h-250c-23 0-42 19-42 42 0 23 19 42 42 42h149z" horiz-adv-x="1000" />

<glyph glyph-name="eye-q" unicode="&#xe87d;" d="M265 507c-63-53-107-114-129-149-1-3-2-4-3-6-1-1-1-1-1-2 0 0 0 0 0 0 0 0 0 0 0 0 0 0 0-1 1-2 1-1 2-3 3-5 22-36 66-97 129-149 63-53 142-94 235-94 94 0 172 41 235 94 63 52 107 113 129 149 1 2 3 4 3 5 1 1 1 2 2 2 0 0 0 0 0 0 0 0 0 0 0 0-1 1-1 1-2 2 0 2-2 3-3 6-22 35-66 96-129 149-63 52-141 93-235 93-93 0-172-41-235-93z m-53 64c72 60 169 112 288 112 119 0 217-52 289-112 71-60 121-130 145-169 1-1 1-1 1-2 5-7 12-17 15-31 3-12 3-26 0-38-3-14-10-24-15-31 0-1 0-1-1-2-24-39-74-108-145-168-72-61-170-113-289-113-119 0-216 52-288 113-72 60-122 129-146 168-1 1-1 1-1 2-5 7-12 17-15 31-2 12-2 26 0 38 3 14 10 24 15 31 0 1 0 2 1 2 24 39 74 109 146 169z m288-138c-46 0-83-37-83-83 0-46 37-83 83-83 46 0 83 37 83 83 0 46-37 83-83 83z m-167-83c0 92 75 167 167 167 92 0 167-75 167-167 0-92-75-167-167-167-92 0-167 75-167 167z" horiz-adv-x="1000" />

<glyph glyph-name="eye-off-q" unicode="&#xe87e;" d="M746 154c-4 4-4 4-8 9l-125 125c0 0 0 0 0 0 0 0 0 0 0 0l-309 308c0 4-4 4-4 8l-154 150c-17 17-42 17-58 0s-17-41 0-58l120-121c-75-62-125-133-150-171-4-12-12-21-16-33 0-13 0-29 0-38 4-12 8-25 16-33 55-83 205-283 434-283 75 0 146 21 212 62l129-129c9-8 17-13 30-13s20 5 29 13c16 17 16 42 0 58l-146 146 0 0z m-333 217l100-100c-5-4-13-4-21-4-46 0-84 37-84 83 0 8 5 13 5 21z m79-271c-192 0-317 171-363 242-4 4-4 8-4 8 0 0 0 4 4 8 25 38 71 105 138 159l83-84c-17-25-25-54-25-83 0-92 75-167 167-167 29 0 58 9 83 25l67-66c-46-29-96-42-150-42l0 0z m450 267c-4 12-9 21-17 33-50 88-200 283-433 283-21 0-38 0-59-4-20-4-37-25-33-46 4-20 25-37 46-33 17 0 33 0 46 0 191 0 316-171 362-242 0-4 4-4 4-4 0-4-4-4-4-8-12-17-29-46-54-75-17-17-12-46 4-58 9-9 17-9 25-9 13 0 25 4 34 17 20 25 41 54 58 83 8 9 12 21 17 34 8 4 8 20 4 29l0 0z" horiz-adv-x="1000" />

<glyph glyph-name="file-chart-q" unicode="&#xe87f;" d="M375 225v-125c0-25-17-42-42-42s-41 17-41 42v125c0 25 16 42 41 42s42-17 42-42z m125 229c-25 0-42-16-42-41v-313c0-25 17-42 42-42s42 17 42 42v313c0 25-17 41-42 41z m167-104c-25 0-42-17-42-42v-208c0-25 17-42 42-42s41 17 41 42v208c0 25-16 42-41 42z m208 88c0 0 0-5 0-5v-304c0-33 0-62 0-83 0-25-4-46-17-67-16-33-41-58-70-71-21-8-42-12-67-16-21 0-50 0-83 0h-271c-34 0-63 0-84 0-25 0-45 4-66 16-34 17-59 42-71 71-8 21-13 42-17 67 0 21 0 50 0 83v438c0 33 0 62 0 83 0 25 4 46 17 67 17 33 42 58 71 71 21 8 41 12 66 16 21 0 50 0 84 0h133c0 0 4 0 4 0 25 0 46 0 67-4 8-4 21-4 29-8 0 0 0 0 0 0 4-4 13-4 17-9 16-8 29-25 50-41 0 0 0 0 4-4l133-134c0 0 0 0 4-4 17-17 34-33 42-50 4-4 8-12 8-17 0 0 0 0 0 0 5-8 9-20 9-29 8-21 8-41 8-66z m-250 145c0-12 0-20 0-25 0 0 0 0 0 0 0 0 0 0 0 0 4 0 13 0 25 0h83l-108 109v-84z m167-150c0 21 0 34 0 42h-142c-12 0-21 0-29 0-8 0-21 4-33 8-17 9-30 21-38 38-4 12-8 21-8 33 0 9 0 21 0 29v142c-9 0-21 0-42 0h-133c-38 0-59 0-79 0-17 0-30-4-34-8-16-9-29-21-37-38-4-4-4-16-9-33 0-21 0-42 0-79v-434c0-37 0-58 0-79 0-16 5-29 9-33 8-17 21-29 37-38 9-4 17-4 34-8 20 0 41 0 79 0h266c38 0 59 0 80 0 16 0 29 4 33 8 17 9 29 21 37 38 5 8 5 17 9 33 0 21 0 42 0 79v300z" horiz-adv-x="1000" />

<glyph glyph-name="file-check-q" unicode="&#xe880;" d="M904 192c-16 16-41 16-58 0l-158-159-55 55c-16 16-41 16-58 0s-17-42 0-59l83-83c9-9 17-13 30-13s20 4 29 13l187 187c17 17 17 42 0 59l0 0z m-279 200c0 25-17 41-42 41h-250c-25 0-41-16-41-41s16-42 41-42h250c25 0 42 17 42 42z m-292-125c-25 0-41-17-41-42s16-42 41-42h84c25 0 41 17 41 42s-16 42-41 42h-84z m167-292h-133c-63 0-96 0-113 8-16 9-29 21-37 38s-9 50-9 112v434c0 62 0 96 9 112 8 17 21 29 37 38 17 8 50 8 113 8h266c63 0 96 0 113-8 17-9 29-21 37-38s9-50 9-112v-238c0-25 21-41 41-41s42 16 42 41v238c0 75 0 116-17 150s-41 58-75 75c-33 16-75 16-150 16h-266c-79 0-117 0-150-16s-59-42-75-75-17-71-17-150v-434c0-75 0-116 17-150s41-58 75-75c33-16 71-16 150-16h133c25 0 42 20 42 41s-21 42-42 42l0 0z m208 583c0 25-20 42-41 42h-334c-25 0-41-17-41-42s16-41 41-41h334c21 0 41 16 41 41z" horiz-adv-x="1000" />

<glyph glyph-name="file-down-q" unicode="&#xe881;" d="M583 350h-250c-25 0-41 17-41 42s16 41 41 41h250c25 0 42-16 42-41s-17-42-42-42z m-250-83c-25 0-41-17-41-42s16-42 41-42h84c25 0 41 17 41 42s-16 42-41 42h-84z m188-292h-154c-63 0-96 0-113 8-16 9-29 21-37 38-9 17-9 50-9 112v434c0 62 0 96 9 112 8 17 21 29 37 38 17 8 50 8 113 8h266c63 0 96 0 113-8 17-9 29-21 37-38 9-16 9-50 9-112v-238c0-25 16-41 41-41s42 16 42 41v238c0 75 0 116-17 150-16 33-41 58-70 71-38 20-80 20-155 20h-266c-75 0-117 0-150-16-34-17-59-42-71-71-21-38-21-79-21-154v-434c0-75 0-116 17-150 16-33 41-58 71-71 37-20 79-20 154-20h154c25 0 42 16 42 41s-17 42-42 42z m383 113c-16 16-41 16-58 0l-54-55v150c0 25-17 42-42 42s-42-17-42-42v-150l-54 55c-16 16-41 16-58 0s-17-42 0-59l125-125c4-4 8-8 12-8 5 0 9-4 17-4 0 0 0 0 0 0s0 0 0 0c4 0 13 0 17 4 4 0 8 4 12 8l125 125c17 17 17 42 0 59z m-196 470c0 25-16 42-41 42h-334c-25 0-41-17-41-42s16-41 41-41h334c25 0 41 16 41 41z" horiz-adv-x="1000" />

</font>
</defs>
</svg>
